Завантажити та скачати торренти українською


Пеле: Народження легенди / Pelé: Birth of a Legend (2016) 1080p Ukr/Eng | Sub Eng

Нові коментарі

Нова тема   Відповісти
Автор Повідомлення
Anonymous 







2016-08-19 16:25  
Пеле: Народження легенди / Pelé: Birth of a Legend (2016) 1080p Ukr/Eng | Sub Eng

Пеле: Народження легенди / Pelé: Birth of a Legend (2016) 1080p Ukr/Eng | Sub Eng


Жанр: драма, біографічний, спорт
Країна: США



Кінокомпанія: Imagine Entertainment, Seine Pictures, Zohar Internationa
Режисер: Джефф Цимбаліст / Jeff Zimbalist, Майкл Цимбаліст / Michael Zimbalist
Актори: Кевін де Паула / Kevin de Paula, Леонардо Ліма Карвальо / Leonardo Lima Carvalho, Сеу Жоржі / Seu Jorge, Маріана Нюнс / Mariana Nunes, Вінсент Д’Онофріо / Vincent D'Onofrio, Андре Маттос / André Mattos, Рафаель Енрікес / Rafael Henriques, Родріго Санторо / Rodrigo Santoro, Дієго Бонета / Diego Boneta, Колм Міні / Colm Meaney, Пеле / Pelé та інші

Сюжет:
У невеликому бразильському містечку в бідній родині зростав хлопчик Едсон. Його батько в минулому був футболістом, тож до захоплення сина цією грою завжди ставився з повагою і навчав усього, що знав і вмів сам. Із семи років хлопчик почав виступати за місцеву дитячу збірну, а в 15-ть його запросили грати за команду "Сантос". Згодом клуб став всесвітньо відомим, і багато в чому завдяки хлопцю, якого світ знає під іменем Пеле.



Рейтинг MPAA: PG - рекомендується присутність батьків
Вікова категорія: 12+

Тривалість: 01:47:06
Якість: 1080p
Відео:
кодек:
розмір кадру: 1920 х 800
бітрейт: 10,9 Мбіт/с

Аудіо # 1:
мова: українська
переклад: багатоголосий закадровий
кодек: 5.1
бітрейт: 1509 Кбіт/с

Аудіо # 2:
мова: англійська
переклад: оригінал
кодек: 5.1
бітрейт: 1509 Кбіт/с

Субтитри:
мова: англійська
тип: програмні (м'які)
формат: *.srt

Збережено оригінальні розділи, як на Blu-ray.
MediaInfo
Код:
Complete name               : Pele. Birth of a Legend (2016) [Ukr,Eng sub.Eng] 1080p [Hurtom].mkv
Format                      : Matroska
Format version              : Version 4 / Version 2
File size                   : 10.4 GiB
Duration                    : 1 h 47 min
Overall bit rate            : 14.0 Mb/s
Movie name                  : Пеле: Народження легенди / Pelé: Birth of a Legend (2016) [Ukr,Eng sub.Eng] 1080p [Hurtom]
Encoded date                : UTC 2016-08-19 13:49:13
Writing application         : mkvmerge v9.3.1 ('Mask Machine') 64bit
Writing library             : libebml v1.3.4 + libmatroska v1.4.5
Cover                       : Yes
Attachments                 : cover.jpg

Video
ID                          : 1
Format                      : AVC
Format/Info                 : Advanced Video Codec
Format profile              : [email protected]
Format settings, CABAC      : Yes
Format settings, ReFrames   : 5 frames
Codec ID                    : V_MPEG4/ISO/AVC
Duration                    : 1 h 47 min
Bit rate                    : 10.9 Mb/s
Width                       : 1 920 pixels
Height                      : 800 pixels
Display aspect ratio        : 2.40:1
Frame rate mode             : Constant
Frame rate                  : 23.976 (24000/1001) FPS
Color space                 : YUV
Chroma subsampling          : 4:2:0
Bit depth                   : 8 bits
Scan type                   : Progressive
Bits/(Pixel*Frame)          : 0.297
Stream size                 : 8.19 GiB (78%)
Title                       : Пеле: Народження легенди / Pelé: Birth of a Legend (2016) 1080p [ExKinoRay]
Writing library             : core 148 r2705 3f5ed56
Encoding settings           : cabac=1 / ref=5 / deblock=1:-3:-3 / analyse=0x3:0x133 / me=umh / subme=11 / psy=1 / psy_rd=0.95:0.10 / mixed_ref=1 / me_range=64 / chroma_me=1 / trellis=2 / 8x8dct=1 / cqm=0 / deadzone=21,11 / fast_pskip=0 / chroma_qp_offset=-2 / threads=25 / lookahead_threads=4 / sliced_threads=0 / nr=0 / decimate=1 / interlaced=0 / bluray_compat=0 / constrained_intra=0 / bframes=8 / b_pyramid=2 / b_adapt=2 / b_bias=0 / direct=3 / weightb=1 / open_gop=0 / weightp=2 / keyint=250 / keyint_min=23 / scenecut=40 / intra_refresh=0 / rc_lookahead=120 / rc=crf / mbtree=1 / crf=15.2 / qcomp=0.60 / qpmin=0 / qpmax=69 / qpstep=4 / vbv_maxrate=50000 / vbv_bufsize=55000 / crf_max=0.0 / nal_hrd=none / filler=0 / ip_ratio=1.40 / aq=3:0.80 / zones=146141,154064,crf=25
Language                    : English
Default                     : Yes
Forced                      : Yes
Color range                 : Limited
Color primaries             : BT.709
Transfer characteristics    : BT.709
Matrix coefficients         : BT.709

Audio #1
ID                          : 2
Format                      :
Format/Info                 : Digital Theater Systems
Mode                        : 16
Format settings, Endianness : Big
Codec ID                    : A_DTS
Duration                    : 1 h 47 min
Bit rate mode               : Constant
Bit rate                    : 1 509 kb/s
Channel(s)                  : 6 channels
Channel positions           : Front: L C R, Side: L R, LFE
Sampling rate               : 48.0 kHz
Frame rate                  : 93.750 FPS (512 spf)
Bit depth                   : 24 bits
Compression mode            : Lossy
Stream size                 : 1.13 GiB (11%)
Title                       : MVO, 5.1 1509 kbps [Hurtom]
Language                    : Ukrainian
Default                     : Yes
Forced                      : Yes

Audio #2
ID                          : 3
Format                      :
Format/Info                 : Digital Theater Systems
Mode                        : 16
Format settings, Endianness : Big
Codec ID                    : A_DTS
Duration                    : 1 h 47 min
Bit rate mode               : Constant
Bit rate                    : 1 509 kb/s
Channel(s)                  : 6 channels
Channel positions           : Front: L C R, Side: L R, LFE
Sampling rate               : 48.0 kHz
Frame rate                  : 93.750 FPS (512 spf)
Bit depth                   : 24 bits
Compression mode            : Lossy
Stream size                 : 1.13 GiB (11%)
Title                       : Original, 5.1 1509 kbps
Language                    : English
Default                     : No
Forced                      : No

Text
ID                          : 4
Format                      : UTF-8
Codec ID                    : S_TEXT/UTF8
Codec ID/Info               : UTF-8 Plain Text
Duration                    : 1 h 40 min
Bit rate                    : 65 b/s
Count of elements           : 1361
Stream size                 : 48.2 KiB (0%)
Title                       : Full
Language                    : English
Default                     : No
Forced                      : No

Menu
00:00:00.000                : en:Chapter 1
00:08:37.808                : en:Chapter 2
00:15:48.155                : en:Chapter 3
00:27:30.982                : en:Chapter 4
00:34:55.093                : en:Chapter 5
00:43:33.569                : en:Chapter 6
00:53:53.772                : en:Chapter 7
01:04:19.730                : en:Chapter 8
01:14:40.309                : en:Chapter 9
01:21:35.056                : en:Chapter 10
01:29:41.000                : en:Chapter 11
01:42:00.072                : en:Chapter 12


Джерело: &


ЗАЛИШАЙТЕСЬ ЯКОМОГА ДОВШЕ НА РОЗДАЧІ!
СКАЧАВ САМ - ДАЙ СКАЧАТИ ІНШИМ


 Трекер:    Зареєстрований   

Завантажити / скачати фільм українською



відео для новачків



 Зареєстрований:   2016-08-19 16:25
 Розмір:   10.45 GB 
 Оцінка фільму:   5.1/10 (Голосів: 22)
   
Ваш часовий пояс: GMT + 2 Години

Нова тема   Відповісти