Завантажити та скачати торренти українською


Picasso Jazz Trio - Quiet Jazz For Master Klass (2008) [FLAC] | Jazz

Нові коментарі

Нова тема   Відповісти
Автор Повідомлення
kolpavel 
VIP


З нами з: 04.05.14
Востаннє: 09.12.16
Повідомлень: 1059

2016-08-18 18:16  
Picasso Jazz Trio - Quiet Jazz For Master Klass (2008) [FLAC] | Jazz

Picasso Jazz Trio - Quiet Jazz For Master Klass (2008) [FLAC] | Jazz


Стиль: Jazz
Країна, місто: Україна, Київ
Видавець: I-klass (JIK 003-08)
Виконавці:
Павло Шепета - клавіші
Максим Гладецький - бас
Валерій Волков - ударні
Пісні:
    1. Wrap Your Troubles In Dreams (H.Barris) - 04:59
    2. Beautiful Love (D.Gillespie/J.King/Van Alstyne/V.Joung) - 07:50
    3. Wawe (A.C.Jobim) - 05:11
    4. Retrato Em Branco E Preto (A.C.Jobim) - 06:19
    5. Here, There and Everywhere (J.Lennon/P.McCartney) - 06:39
    6. Corcovado (A.C.Jobim) - 06:01
    7. The Cute (N.Hefty) - 05:25
    8. Летите, голуби (И.Дунаевский) - 06:14
    9. I Thought About You (J.van Heusen/J.Mercer) - 07:30

Тривалість: 56:15
Мова: iнструментальнi композицii
Аудіо-кодек: FLAC
Бітрейт: 690-790 кб/с
Джерело: трекер
Додаткова інформація:
EAC
Exact Audio Copy V1.2 from 12. August 2016

EAC extraction logfile from 17. August 2016, 11:58

Pavel Shepeta, Maxim Gladetsky, Valery Volkov / Quiet Jazz for Master Klass

Used drive : Optiarc DVD RW AD-7280S Adapter: 1 ID: 0

Read mode : Secure
Utilize accurate stream : Yes
Defeat audio cache : Yes
Make use of C2 pointers : No

Read offset correction : 48
Overread into Lead-In and Lead-Out : No
Fill up missing offset samples with silence : Yes
Delete leading and trailing silent blocks : No
Null samples used in CRC calculations : Yes
Used interface : Native Win32 interface for Win NT & 2000
Gap handling : Appended to previous track

Used output format : User Defined Encoder
Selected bitrate : 768 kBit/s
Quality : High
Add ID3 tag : No
Command line compressor : C:\Program Files (x86)\Exact Audio Copy\FLAC\FLAC.EXE
Additional command line options : -8 -V -T "TITLE=%title%" -T "ARTIST=%artist%" -T "ALBUMARTIST=%albumartist%" -T "ALBUM=%albumtitle%" -T "DATE=%year%" -T "TRACKNUMBER=%tracknr%" -T "TRACKTOTAL=%numtracks%" -T "GENRE=%genre%" -T "COMMENT=%comment%" -T "PERFORMER=%albuminterpret%" -T "COMPOSER=%composer%" %source% -o %dest%

TOC of the extracted CD

Track | Start | Length | Start sector | End sector
---------------------------------------------------------
1 | 0:00.00 | 4:59.52 | 0 | 22476
2 | 4:59.52 | 7:51.20 | 22477 | 57821
3 | 12:50.72 | 5:11.44 | 57822 | 81190
4 | 18:02.41 | 6:19.46 | 81191 | 109661
5 | 24:22.12 | 6:38.62 | 109662 | 139573
6 | 31:00.74 | 6:01.34 | 139574 | 166682
7 | 37:02.33 | 5:25.08 | 166683 | 191065
8 | 42:27.41 | 6:14.58 | 191066 | 219173
9 | 48:42.24 | 7:31.48 | 219174 | 253046

Track 1

Filename D:\Downloads\Музыка\ТОРРЕНТЫ\picasso jazz trio\Pavel Shepeta, Maxim Gladetsky, Valery Volkov\Quiet Jazz for Master Klass\01. Wrap Your Troubles in Dreams.wav

Pre-gap length 0:00:02.00

Peak level 97.7 %
Extraction speed 2.4 X
Track quality 100.0 %
Test CRC 83F09E29
Copy CRC 83F09E29
Accurately ripped (confidence 1) [91B9A6A8] (AR v2)
Copy OK

Track 2

Filename D:\Downloads\Музыка\ТОРРЕНТЫ\picasso jazz trio\Pavel Shepeta, Maxim Gladetsky, Valery Volkov\Quiet Jazz for Master Klass\02. Beautiful Love.wav

Peak level 93.8 %
Extraction speed 3.0 X
Track quality 100.0 %
Test CRC EBB16C27
Copy CRC EBB16C27
Accurately ripped (confidence 1) [86FF77CF] (AR v2)
Copy OK

Track 3

Filename D:\Downloads\Музыка\ТОРРЕНТЫ\picasso jazz trio\Pavel Shepeta, Maxim Gladetsky, Valery Volkov\Quiet Jazz for Master Klass\03. Wave.wav

Peak level 97.7 %
Extraction speed 3.3 X
Track quality 100.0 %
Test CRC BBACC60D
Copy CRC BBACC60D
Accurately ripped (confidence 1) [D17C8A9D] (AR v2)
Copy OK

Track 4

Filename D:\Downloads\Музыка\ТОРРЕНТЫ\picasso jazz trio\Pavel Shepeta, Maxim Gladetsky, Valery Volkov\Quiet Jazz for Master Klass\04. Retrato Em Branco e Preto.wav

Peak level 97.7 %
Extraction speed 3.6 X
Track quality 100.0 %
Test CRC 7219FF50
Copy CRC 7219FF50
Accurately ripped (confidence 1) [DD88CD65] (AR v2)
Copy OK

Track 5

Filename D:\Downloads\Музыка\ТОРРЕНТЫ\picasso jazz trio\Pavel Shepeta, Maxim Gladetsky, Valery Volkov\Quiet Jazz for Master Klass\05. Here, There and Everywhere.wav

Peak level 97.7 %
Extraction speed 4.0 X
Track quality 100.0 %
Test CRC EED08482
Copy CRC EED08482
Accurately ripped (confidence 1) [EB5C2F01] (AR v2)
Copy OK

Track 6

Filename D:\Downloads\Музыка\ТОРРЕНТЫ\picasso jazz trio\Pavel Shepeta, Maxim Gladetsky, Valery Volkov\Quiet Jazz for Master Klass\06. Corcovado.wav

Peak level 97.7 %
Extraction speed 4.2 X
Track quality 100.0 %
Test CRC 43BD72E3
Copy CRC 43BD72E3
Accurately ripped (confidence 1) [018DB32D] (AR v2)
Copy OK

Track 7

Filename D:\Downloads\Музыка\ТОРРЕНТЫ\picasso jazz trio\Pavel Shepeta, Maxim Gladetsky, Valery Volkov\Quiet Jazz for Master Klass\07. The Cute.wav

Peak level 97.7 %
Extraction speed 4.4 X
Track quality 100.0 %
Test CRC 82D768D2
Copy CRC 82D768D2
Accurately ripped (confidence 1) [CD623750] (AR v2)
Copy OK

Track 8

Filename D:\Downloads\Музыка\ТОРРЕНТЫ\picasso jazz trio\Pavel Shepeta, Maxim Gladetsky, Valery Volkov\Quiet Jazz for Master Klass\08. Летите, голуби.wav

Peak level 97.7 %
Extraction speed 4.7 X
Track quality 100.0 %
Test CRC D854A43C
Copy CRC D854A43C
Accurately ripped (confidence 1) [65234675] (AR v2)
Copy OK

Track 9

Filename D:\Downloads\Музыка\ТОРРЕНТЫ\picasso jazz trio\Pavel Shepeta, Maxim Gladetsky, Valery Volkov\Quiet Jazz for Master Klass\09. I Thought About You.wav

Peak level 92.8 %
Extraction speed 5.0 X
Track quality 100.0 %
Test CRC 9C1319C0
Copy CRC 9C1319C0
Accurately ripped (confidence 1) [8EF38CFF] (AR v2)
Copy OK

All tracks accurately ripped

No errors occurred

End of status report

---- CUETools DB Plugin V2.1.6

[CTDB TOCID: W2DUnOLDh4uLwgmedSgZvalM6P4-] disk not present in database
Submit result: W2DUnOLDh4uLwgmedSgZvalM6P4- has been uploaded

==== Log checksum 748A4450A99A9BA7EE7DB0A3148179B598E53030B11741FF20C461BFEA3E77C5 ====
(.CUE)
REM GENRE Jazz
REM DATE 2008
REM DISCID 720D2D09
REM COMMENT "ExactAudioCopy v1.2"
PERFORMER "Pavel Shepeta, Maxim Gladetsky, Valery Volkov"
TITLE "Quiet Jazz for Master Klass"
REM COMPOSER ""
FILE "Pavel Shepeta, Maxim Gladetsky, Valery Volkov\Quiet Jazz for Master Klass\01. Wrap Your Troubles in Dreams.wav" WAVE
TRACK 01 AUDIO
TITLE "Wrap Your Troubles in Dreams"
PERFORMER "Pavel Shepeta, Maxim Gladetsky, Valery Volkov"
REM COMPOSER ""
FLAGS DCP
INDEX 01 00:00:00
FILE "Pavel Shepeta, Maxim Gladetsky, Valery Volkov\Quiet Jazz for Master Klass\02. Beautiful Love.wav" WAVE
TRACK 02 AUDIO
TITLE "Beautiful Love"
PERFORMER "Pavel Shepeta, Maxim Gladetsky, Valery Volkov"
REM COMPOSER ""
FLAGS DCP
INDEX 01 00:00:00
FILE "Pavel Shepeta, Maxim Gladetsky, Valery Volkov\Quiet Jazz for Master Klass\03. Wave.wav" WAVE
TRACK 03 AUDIO
TITLE "Wave"
PERFORMER "Pavel Shepeta, Maxim Gladetsky, Valery Volkov"
REM COMPOSER ""
FLAGS DCP
INDEX 01 00:00:00
FILE "Pavel Shepeta, Maxim Gladetsky, Valery Volkov\Quiet Jazz for Master Klass\04. Retrato Em Branco e Preto.wav" WAVE
TRACK 04 AUDIO
TITLE "Retrato Em Branco e Preto"
PERFORMER "Pavel Shepeta, Maxim Gladetsky, Valery Volkov"
REM COMPOSER ""
FLAGS DCP
INDEX 01 00:00:00
FILE "Pavel Shepeta, Maxim Gladetsky, Valery Volkov\Quiet Jazz for Master Klass\05. Here, There and Everywhere.wav" WAVE
TRACK 05 AUDIO
TITLE "Here, There and Everywhere"
PERFORMER "Pavel Shepeta, Maxim Gladetsky, Valery Volkov"
REM COMPOSER ""
FLAGS DCP
INDEX 01 00:00:00
FILE "Pavel Shepeta, Maxim Gladetsky, Valery Volkov\Quiet Jazz for Master Klass\06. Corcovado.wav" WAVE
TRACK 06 AUDIO
TITLE "Corcovado"
PERFORMER "Pavel Shepeta, Maxim Gladetsky, Valery Volkov"
REM COMPOSER ""
FLAGS DCP
INDEX 01 00:00:00
FILE "Pavel Shepeta, Maxim Gladetsky, Valery Volkov\Quiet Jazz for Master Klass\07. The Cute.wav" WAVE
TRACK 07 AUDIO
TITLE "The Cute"
PERFORMER "Pavel Shepeta, Maxim Gladetsky, Valery Volkov"
REM COMPOSER ""
FLAGS DCP
INDEX 01 00:00:00
FILE "Pavel Shepeta, Maxim Gladetsky, Valery Volkov\Quiet Jazz for Master Klass\08. Летите, голуби.wav" WAVE
TRACK 08 AUDIO
TITLE "Летите, голуби"
PERFORMER "Pavel Shepeta, Maxim Gladetsky, Valery Volkov"
REM COMPOSER ""
FLAGS DCP
INDEX 01 00:00:00
FILE "Pavel Shepeta, Maxim Gladetsky, Valery Volkov\Quiet Jazz for Master Klass\09. I Thought About You.wav" WAVE
TRACK 09 AUDIO
TITLE "I Thought About You"
PERFORMER "Pavel Shepeta, Maxim Gladetsky, Valery Volkov"
REM COMPOSER ""
FLAGS DCP
INDEX 01 00:00:00
Виступ українських музикантів було записано в київському ресторані Picasso (який вже давно став неофіційною штаб-квартирою продюсерського центру Jazz in Kiev) 16 жовтня 2008 року. Того вечора на вечері в ресторані були присутні знамениті гості - учасники міжнародного фестивалю Jazz in Kiev (проходив 17-19 жовтня). А саме: четверо учасників квінтету Дейва Холланда (був відсутній саксофоніст Кріс Поттер, який прилетів до Києва 17 жовтня), перкусіоніст Кафе (Café), контрабасист Ессет Ессет (Essiеt Essiеt), а також трубач Сашко Сипягiн і піаніст Міша Циганов.


Якщо Ви справді бажаєте підтримати українське - після прослуховування, якщо музика вам сподобалась, придбайте ліцензійний диск. Підтримаймо вітчизняних виконавців!


Срібний реліз (на рейтинг впливає 50% завантаженого)
 Трекер:    Зареєстрований   

Завантажити / скачати українську музику



відео для новачків



 Зареєстрований:   2016-08-18 18:16
 Розмір:   335 MB 
 Оцінка музики:   10/10 (Голосів: 4)
   
Ваш часовий пояс: GMT + 2 Години

Нова тема   Відповісти