Завантажити та скачати торренти українською


Дикі курочки. Трилогія / Die Wilden Hühner. Trilogie (2006-2008) 1080p Ukr/Ger | Sub Ger

Нові коментарі

Нова тема   Відповісти
Автор Повідомлення
mavitya 
Новенький


З нами з: 24.08.08
Востаннє: 06.12.16
Повідомлень: 13

2016-08-17 22:36  
Дикі курочки. Трилогія / Die Wilden Hühner. Trilogie (2006-2008) 1080p Ukr/Ger | Sub Ger

Дикі курочки. Трилогія / Die Wilden Hühner. Trilogie (2006-2008) 1080p Ukr/Ger | Sub Ger


Жанр: комедія
Країна: Німеччина
Дикі курочки / Die Wilden Hühner (2006) 1080p Ukr/Ger | Sub Ger
Дикі курочки / Die Wilden Hühner (2006) 1080p Ukr/Ger | Sub Ger


Жанр: сімейний


Кінокомпанія: Constantin Film, Bavaria Filmverleih- und Produktions GmbH, Lunaris Film
Режисер: Вівіан Нефе
Актори: Мішель фон Тройберг, Люсі Хольман, Паула Ріманн

Сюжет:
Кожній дівчині потрібна краща подруга, а у Шпротте їх цілих три! Разом вони є компанією "Диких курочок", найкрутішою у всьому п'ятому класі. Їх так назвали через те, що вони влаштували для себе притулок в курнику бабусі Шпротте. Дівчата нерозлучні, але в той же час сильно відрізняються одна від одної. Мелані обожнює музику Роббі Вільямса, Труде - італійську кухню, а Фріда завжди дуже товариська. До них приєднується Вільма, яка сподівається стати частиною їхньої компанії.

Єдине, що затьмарює їхнє веселе життя, - це компанія чотирьох хлопчаків, які називають себе "пігмеї", що складається з їхнього лідера Фреда, вічно голодного Торте, шукача скарбів Стіва та агресивного Віллі. Але раптом відбувається те, чого ніхто з них не міг передбачити. Бабуся Шпротте збирається зарізати своїх курчат, які дали ім'я "Диким курочкам" і до яких вони так звикли. Запобігти цьому жорстокому вбивству дівчатам можуть допомогти лише "Пігмеї". Тепер колишнім ворогам доводиться об'єднатися заради спільної мети.


Тривалість: 01:48:44
Якість: 1080p
Відео:
кодек:
розмір кадру: 1920 х 1040
бітрейт: 8 967 кб/с

Аудіо # 1:
мова: українська
переклад: багатоголосий закадровий
кодек: 2.0
бітрейт: 192 кб/с

Аудіо # 2:
мова: німецька
переклад: оригінал
кодек: 5.1
бітрейт: 1 509 кб/с

Субтитри:
мова: німецька
тип: програмні (м'які)
формат: *.srt
MediaInfo
Код:
General
Unique ID                      : 213495962869584658733697721687521496643 (0xA09DD3A87C3D7D79A431CCEB69620E43)
Complete name                  : G:\Nimecki_na_rozdachu\Die Wilden Hühner. Trilogy (2006-2008) 1080p [Hurtom]\Die wilden Huhner (2006) [Ukr,Ger sub.Ger] 1080p [Hurtom].mkv
Format                         : Matroska
Format version                 : Version 4 / Version 2
File size                      : 8.11 GiB
Duration                       : 1h 48mn
Overall bit rate               : 10.7 Mbps
Movie name                     : DIE WILDEN HÜHNER - TEIL 1 - 1080p - R0CKED
Encoded date                   : UTC 2016-08-17 22:18:01
Writing application            : mkvmerge v9.2.0 ('Photograph') 64bit
Writing library                : libebml v1.3.3 + libmatroska v1.4.4
DURATION                       : 01:44:14.457000000
NUMBER_OF_FRAMES               : 1019
NUMBER_OF_BYTES                : 59057
_STATISTICS_WRITING_APP        : mkvmerge v9.2.0 ('Photograph') 64bit
_STATISTICS_WRITING_DATE_UTC   : 2016-08-17 22:18:01
_STATISTICS_TAGS               : BPS DURATION NUMBER_OF_FRAMES NUMBER_OF_BYTES

Video
ID                             : 1
Format                         : AVC
Format/Info                    : Advanced Video Codec
Format profile                 : [email protected]
Format settings, CABAC         : Yes
Format settings, ReFrames      : 4 frames
Codec ID                       : V_MPEG4/ISO/AVC
Duration                       : 1h 48mn
Bit rate                       : 8 967 Kbps
Width                          : 1 920 pixels
Height                         : 1 040 pixels
Display aspect ratio           : 1.85:1
Frame rate mode                : Constant
Frame rate                     : 24.000 fps
Color space                    : YUV
Chroma subsampling             : 4:2:0
Bit depth                      : 8 bits
Scan type                      : Progressive
Bits/(Pixel*Frame)             : 0.187
Stream size                    : 6.65 GiB (82%)
Title                          : DIE WILDEN HÜHNER - TEIL 1 - R0CKED
Writing library                : core 68 r1183M f21daff
Encoding settings              : cabac=1 / ref=4 / deblock=1:0:0 / analyse=0x1:0x131 / me=umh / subme=7 / psy_rd=1.0:0.0 / mixed_ref=1 / me_range=16 / chroma_me=1 / trellis=1 / 8x8dct=0 / cqm=0 / deadzone=21,11 / chroma_qp_offset=-2 / threads=12 / nr=0 / decimate=0 / mbaff=0 / bframes=3 / b_pyramid=1 / b_adapt=1 / b_bias=0 / direct=1 / wpredb=1 / keyint=250 / keyint_min=25 / scenecut=40 / rc=2pass / bitrate=8967 / ratetol=1.0 / qcomp=0.60 / qpmin=10 / qpmax=51 / qpstep=4 / cplxblur=20.0 / qblur=0.5 / ip_ratio=1.40 / pb_ratio=1.30 / aq=1:1.00
Language                       : German
Default                        : Yes
Forced                         : Yes
DURATION                       : 01:48:44.589000000
NUMBER_OF_FRAMES               : 156590
NUMBER_OF_BYTES                : 7313203937
_STATISTICS_WRITING_APP        : mkvmerge v9.2.0 ('Photograph') 64bit
_STATISTICS_WRITING_DATE_UTC   : 2016-08-17 22:18:01
_STATISTICS_TAGS               : BPS DURATION NUMBER_OF_FRAMES NUMBER_OF_BYTES

Audio #1
ID                             : 2
Format                         : AC-3
Format/Info                    : Audio Coding 3
Mode extension                 : CM (complete main)
Format settings, Endianness    : Big
Codec ID                       : A_AC3
Duration                       : 1h 48mn
Bit rate mode                  : Constant
Bit rate                       : 192 Kbps
Channel(s)                     : 2 channels
Channel positions              : Front: L R
Sampling rate                  : 48.0 KHz
Bit depth                      : 16 bits
Compression mode               : Lossy
Stream size                    : 149 MiB (2%)
Language                       : Ukrainian
Default                        : Yes
Forced                         : Yes

Audio #2
ID                             : 3
Format                         :
Format/Info                    : Digital Theater Systems
Mode                           : 16
Format settings, Endianness    : Big
Codec ID                       : A_DTS
Duration                       : 1h 48mn
Bit rate mode                  : Constant
Bit rate                       : 1 509 Kbps
Channel(s)                     : 6 channels
Channel positions              : Front: L C R, Side: L R, LFE
Sampling rate                  : 48.0 KHz
Bit depth                      : 16 bits
Compression mode               : Lossy
Stream size                    : 1.15 GiB (14%)
Title                          : GERMAN
Language                       : German
Default                        : No
Forced                         : No

Text
ID                             : 4
Format                         : UTF-8
Codec ID                       : S_TEXT/UTF8
Codec ID/Info                  : UTF-8 Plain Text
Title                          : GERMAN SUB
Language                       : German
Default                        : No
Forced                         : No
Дикі курочки і кохання / Die wilden Hühner und die Liebe (2007) 1080p Ukr/Ger | Sub Ger
Дикі курочки і кохання / Die wilden Hühner und die Liebe (2007) 1080p Ukr/Ger | Sub





Жанр: комедія, сімейний, мелодрама

Кінокомпанія: Constantin Film, Bavaria Filmverleih- und Produktions GmbH, Lunaris Film
Режисер: Вівіан Нефе
Актори: Джеремі Мокрідж, Вінсент Редецкі, Філіп Віграц, Мартін Курц, Мішель фон Трюберг, Люсі Хольманн, Паула Ріманн

Сюжет:
Зустрічайте другу частину історії про дівчат . Цього разу п'ятеро дівчат ближче знайомляться з протилежною статтю і відкривають для себе, що хлопчики можуть згодитися не тільки для дружби. На них чекатиме не просте, але перше справжнє кохання.


Тривалість: 01:48:08
Якість: 1080p
Відео:
кодек:
розмір кадру: 1920 х 1080
бітрейт: 9 026 кб/с

Аудіо # 1:
мова: українська
переклад: багатоголосий закадровий
кодек: 2.0
бітрейт: 192 кб/с

Аудіо # 2:
мова: німецька
переклад: оригінал
кодек: 5.1
бітрейт: 1 509 кб/с

Субтитри:
мова: німецька
тип: програмні (м'які)
формат: *.srt
MediaInfo
Код:
General
Unique ID                      : 208231103364795207003780955001916822170 (0x9CA7DA0B20DC1F1B872F025C575D129A)
Complete name                  : G:\Nimecki_na_rozdachu\Die Wilden Hühner. Trilogy (2006-2008) 1080p [Hurtom]\Die wilden Huhner und die Liebe (2007) [Ukr,Ger sub.Ger] 1080p [Hurtom].mkv
Format                         : Matroska
Format version                 : Version 4 / Version 2
File size                      : 8.10 GiB
Duration                       : 1h 48mn
Overall bit rate               : 10.7 Mbps
Movie name                     : DIE WILDEN HÜHNER - TEIL 2 - 1080p - R0CKED
Encoded date                   : UTC 2016-08-17 22:46:10
Writing application            : mkvmerge v9.2.0 ('Photograph') 64bit
Writing library                : libebml v1.3.3 + libmatroska v1.4.4
DURATION                       : 01:42:31.165000000
NUMBER_OF_FRAMES               : 1009
NUMBER_OF_BYTES                : 58287
_STATISTICS_WRITING_APP        : mkvmerge v9.2.0 ('Photograph') 64bit
_STATISTICS_WRITING_DATE_UTC   : 2016-08-17 22:46:10
_STATISTICS_TAGS               : BPS DURATION NUMBER_OF_FRAMES NUMBER_OF_BYTES

Video
ID                             : 2
Format                         : AVC
Format/Info                    : Advanced Video Codec
Format profile                 : [email protected]
Format settings, CABAC         : Yes
Format settings, ReFrames      : 4 frames
Codec ID                       : V_MPEG4/ISO/AVC
Duration                       : 1h 48mn
Bit rate                       : 9 026 Kbps
Width                          : 1 920 pixels
Height                         : 1 080 pixels
Display aspect ratio           : 16:9
Frame rate mode                : Constant
Frame rate                     : 24.000 fps
Color space                    : YUV
Chroma subsampling             : 4:2:0
Bit depth                      : 8 bits
Scan type                      : Progressive
Bits/(Pixel*Frame)             : 0.181
Stream size                    : 6.66 GiB (82%)
Title                          : DIE WILDEN HÜHNER - TEIL 2 - 1080p - R0CKED
Writing library                : core 68 r1183M f21daff
Encoding settings              : cabac=1 / ref=4 / deblock=1:0:0 / analyse=0x1:0x131 / me=umh / subme=7 / psy_rd=1.0:0.0 / mixed_ref=1 / me_range=16 / chroma_me=1 / trellis=1 / 8x8dct=0 / cqm=0 / deadzone=21,11 / chroma_qp_offset=-2 / threads=12 / nr=0 / decimate=0 / mbaff=0 / bframes=3 / b_pyramid=1 / b_adapt=1 / b_bias=0 / direct=1 / wpredb=1 / keyint=250 / keyint_min=25 / scenecut=40 / rc=2pass / bitrate=9026 / ratetol=1.0 / qcomp=0.60 / qpmin=10 / qpmax=51 / qpstep=4 / cplxblur=20.0 / qblur=0.5 / ip_ratio=1.40 / pb_ratio=1.30 / aq=1:1.00
Language                       : German
Default                        : Yes
Forced                         : Yes

Audio #1
ID                             : 1
Format                         : AC-3
Format/Info                    : Audio Coding 3
Mode extension                 : CM (complete main)
Format settings, Endianness    : Big
Codec ID                       : A_AC3
Duration                       : 1h 48mn
Bit rate mode                  : Constant
Bit rate                       : 192 Kbps
Channel(s)                     : 2 channels
Channel positions              : Front: L R
Sampling rate                  : 48.0 KHz
Bit depth                      : 16 bits
Compression mode               : Lossy
Stream size                    : 149 MiB (2%)
Language                       : Ukrainian
Default                        : Yes
Forced                         : Yes
DURATION                       : 01:48:08.589000000
NUMBER_OF_FRAMES               : 155726
NUMBER_OF_BYTES                : 7318872032
_STATISTICS_WRITING_APP        : mkvmerge v9.2.0 ('Photograph') 64bit
_STATISTICS_WRITING_DATE_UTC   : 2016-08-17 22:46:10
_STATISTICS_TAGS               : BPS DURATION NUMBER_OF_FRAMES NUMBER_OF_BYTES

Audio #2
ID                             : 3
Format                         :
Format/Info                    : Digital Theater Systems
Mode                           : 16
Format settings, Endianness    : Big
Codec ID                       : A_DTS
Duration                       : 1h 48mn
Bit rate mode                  : Constant
Bit rate                       : 1 509 Kbps
Channel(s)                     : 6 channels
Channel positions              : Front: L C R, Side: L R, LFE
Sampling rate                  : 48.0 KHz
Bit depth                      : 16 bits
Compression mode               : Lossy
Stream size                    : 1.14 GiB (14%)
Title                          : GERMAN
Language                       : German
Default                        : No
Forced                         : No

Text
ID                             : 4
Format                         : UTF-8
Codec ID                       : S_TEXT/UTF8
Codec ID/Info                  : UTF-8 Plain Text
Title                          : GERMAN SUB
Language                       : German
Default                        : No
Forced                         : No
Дикі курочки і життя / Die wilden Hühner und das leben (2008) 1080p Ukr/Ger | Sub Ger
Дикі курочки і життя / Die wilden Hühner und das leben (2008) 1080p Ukr/Ger | Sub





Жанр: комедія

Кінокомпанія: Constantin Film, Bavaria Filmverleih- und Produktions GmbH, Lunaris Film
Режисер: Вівіан Нефе
Актори: Мішель фон Трюберг, Люсі Хольманн, Соня Герхардт, Йетті Херинг, Джеремі Мокрідж, Філіп Віграц, Вінсент Редецкі, Мартін Курц, Вероніка Феррес

Сюжет:
Нерозлучні подруги організували компанію "Диких курочок", названу так через те, що вони влаштували собі притулок в курнику бабусі однієї з подруг. Дівчатка сильно відрізняються одина від одної. Мелані любить музику Робі Вільямса, Труде - італійську кухню, а Фріда завжди дуже товариська. Їхня дружба допомагає їм подолати будь-які труднощі, що часто зустрічаються в цьому віці.


Тривалість: 01:51:36
Якість: 1080p
Відео:
кодек:
розмір кадру: 1920 х 1040
бітрейт: 7 656 кб/с

Аудіо # 1:
мова: українська
переклад: багатоголосий закадровий
кодек: 2.0
бітрейт: 192 кб/с

Аудіо # 2:
мова: німецька
переклад: оригінал
кодек: 5.1
бітрейт: 1 509 кб/с

Субтитри:
мова: німецька
тип: програмні (м'які)
формат: *.srt
MediaInfo
Код:
General
Unique ID                      : 193250785029065850205459947041285131020 (0x9162BF53673828FA8A7B459E4E9ECB0C)
Complete name                  : G:\Nimecki_na_rozdachu\Die Wilden Hühner. Trilogy (2006-2008) 1080p [Hurtom]\Die wilden Huhner und das Leben (2008) [Ukr,Ger sub.Ger] 1080p [Hurtom].mkv
Format                         : Matroska
Format version                 : Version 4 / Version 2
File size                      : 7.44 GiB
Duration                       : 1h 51mn
Overall bit rate               : 9 547 Kbps
Encoded date                   : UTC 2016-08-17 22:31:55
Writing application            : mkvmerge v9.2.0 ('Photograph') 64bit
Writing library                : libebml v1.3.3 + libmatroska v1.4.4
DURATION                       : 01:49:45.082000000
NUMBER_OF_FRAMES               : 1057
NUMBER_OF_BYTES                : 47783
_STATISTICS_WRITING_APP        : mkvmerge v9.2.0 ('Photograph') 64bit
_STATISTICS_WRITING_DATE_UTC   : 2016-08-17 22:31:55
_STATISTICS_TAGS               : BPS DURATION NUMBER_OF_FRAMES NUMBER_OF_BYTES

Video
ID                             : 1
Format                         : AVC
Format/Info                    : Advanced Video Codec
Format profile                 : [email protected]
Format settings, CABAC         : Yes
Format settings, ReFrames      : 4 frames
Codec ID                       : V_MPEG4/ISO/AVC
Duration                       : 1h 51mn
Bit rate                       : 7 656 Kbps
Width                          : 1 920 pixels
Height                         : 1 040 pixels
Display aspect ratio           : 1.85:1
Frame rate mode                : Constant
Frame rate                     : 24.000 fps
Color space                    : YUV
Chroma subsampling             : 4:2:0
Bit depth                      : 8 bits
Scan type                      : Progressive
Bits/(Pixel*Frame)             : 0.160
Stream size                    : 5.97 GiB (80%)
Writing library                : core 68 r1183M f21daff
Encoding settings              : cabac=1 / ref=4 / deblock=1:0:0 / analyse=0x3:0x113 / me=umh / subme=7 / psy_rd=1.0:0.0 / mixed_ref=1 / me_range=16 / chroma_me=1 / trellis=1 / 8x8dct=1 / cqm=0 / deadzone=21,11 / chroma_qp_offset=-2 / threads=6 / nr=0 / decimate=1 / mbaff=0 / bframes=3 / b_pyramid=1 / b_adapt=1 / b_bias=0 / direct=1 / wpredb=1 / keyint=250 / keyint_min=25 / scenecut=40 / rc=crf / crf=22.0 / qcomp=0.60 / qpmin=10 / qpmax=51 / qpstep=4 / ip_ratio=1.40 / pb_ratio=1.30 / aq=1:1.00
Language                       : German
Default                        : Yes
Forced                         : No
DURATION                       : 01:51:36.547000000
NUMBER_OF_FRAMES               : 160717
NUMBER_OF_BYTES                : 6564939358
_STATISTICS_WRITING_APP        : mkvmerge v9.2.0 ('Photograph') 64bit
_STATISTICS_WRITING_DATE_UTC   : 2016-08-17 22:31:55
_STATISTICS_TAGS               : BPS DURATION NUMBER_OF_FRAMES NUMBER_OF_BYTES

Audio #1
ID                             : 2
Format                         : AC-3
Format/Info                    : Audio Coding 3
Mode extension                 : CM (complete main)
Format settings, Endianness    : Big
Codec ID                       : A_AC3
Duration                       : 1h 51mn
Bit rate mode                  : Constant
Bit rate                       : 192 Kbps
Channel(s)                     : 2 channels
Channel positions              : Front: L R
Sampling rate                  : 48.0 KHz
Bit depth                      : 16 bits
Compression mode               : Lossy
Stream size                    : 153 MiB (2%)
Language                       : Ukrainian
Default                        : Yes
Forced                         : Yes

Audio #2
ID                             : 3
Format                         :
Format/Info                    : Digital Theater Systems
Mode                           : 16
Format settings, Endianness    : Big
Codec ID                       : A_DTS
Duration                       : 1h 51mn
Bit rate mode                  : Constant
Bit rate                       : 1 509 Kbps
Channel(s)                     : 6 channels
Channel positions              : Front: L C R, Side: L R, LFE
Sampling rate                  : 48.0 KHz
Bit depth                      : 24 bits
Compression mode               : Lossy
Stream size                    : 1.18 GiB (16%)
Title                          : (1536)
Language                       : German
Default                        : No
Forced                         : No

Text
ID                             : 4
Format                         : UTF-8
Codec ID                       : S_TEXT/UTF8
Codec ID/Info                  : UTF-8 Plain Text
Title                          : normal
Language                       : German
Default                        : Yes
Forced                         : No
Джерело: &
Особиста оцінка: 10 - без зайвих вагань рекомендую всім!
Особлива подяка п.[b]Arsenfpu за синхронізацію звуку та п.POMEO за його запис з ТБ[/b]


Бронзовий реліз (на рейтинг впливає 75% завантаженого)
 Трекер:    Зареєстрований   

Завантажити / скачати фільм українською



відео для новачків



 Зареєстрований:   2016-10-01 18:05
 Розмір:   23.65 GB 
 Оцінка фільму:   10/10 (Голосів: 1)
   
Till_ 
Новенький


З нами з: 16.11.15
Востаннє: 24.09.16
Повідомлень: 2

2016-09-01 20:12  
Доброго дня!
У першій частині трилогії о 19.08 хвилині уривається запис та скидається на початок.
Доводиться вручну виставляти за 20-ту хвилину, щоб відновити відтворення, але зіпсований фрагмент передивитися не вдається. Використовував медіапрогравач VLC, Media Player Classic, програвач Windows Media. Вторинне перезавантаження файлу не допомогло.
В когось траплялось подібне? Прошу передивитися цілісність ріпу.

igor911 
Відео Гуртом
Відео Гуртом


З нами з: 18.01.08
Востаннє: 06.12.16
Повідомлень: 5159

2016-09-01 21:05  
Till_, перевір файл програмкою mkvalidator
Till_ 
Новенький


З нами з: 16.11.15
Востаннє: 24.09.16
Повідомлень: 2

2016-09-02 10:43  
Дякую. Тоді проблема суто в мене...хоча все одно маловірогідно.
super771 
Новенький


З нами з: 23.03.12
Востаннє: 03.12.16
Повідомлень: 3

2016-09-29 12:13  
Thank you so much for a great post.
igor911 
Відео Гуртом
Відео Гуртом


З нами з: 18.01.08
Востаннє: 06.12.16
Повідомлень: 5159

2016-09-29 13:25  
super771, у нас спілкуються ЛИШЕ українською.
Правила написано:
Всім без винятку заборонено:
2.1 Спілкуватися іншою мовою, аніж літературною українською; використовувати для написання українських слів іншу абетку, аніж кирилицю
Якщо є проблеми з перекладом - використовуй https://translate.google.com/
mavitya 
Новенький


З нами з: 24.08.08
Востаннє: 06.12.16
Повідомлень: 13

2016-10-01 18:06  
Замінена перша частина трилогії, усунуто виявлений недолік. Прохання перезавантажити торрент-файл.
leicheman 
Відео Гуртом - підтримка та поширення
Відео Гуртом - підтримка та поширення


З нами з: 03.07.14
Востаннє: 06.12.16
Повідомлень: 317

2016-10-01 18:46  
краще б 3ю частину і не знімали
Ваш часовий пояс: GMT + 2 Години

Нова тема   Відповісти