Завантажити та скачати торренти українською


VA - Alexey Kogan ... Just 50 (2007) [FLAC] | Jazz

Нові коментарі

Нова тема   Відповісти
Автор Повідомлення
kolpavel 
VIP


З нами з: 04.05.14
Востаннє: 04.12.16
Повідомлень: 1060

2016-08-16 18:37  
VA - Alexey Kogan ...Just 50 (2007) [FLAC] | Jazz

VA - Alexey Kogan ... Just 50 (2007) [FLAC] | Jazz


Стиль: Jazz
Країна, місто: Україна, Київ
Видавець: Jazz in Kiev Records (JIK 001-07)
Сайти: http://jazzinkiev.com/

Пісні:
    01. Intro
    02. X-City (Skhid-Side) music: D. Alexandrov
    03. Our Spanish Love Song (Yuri Shepeta Quartet) music: Ch. Haden
    04. Shkatulka (Enver Izmaylov, Leniye Izmaylova)
    05. Dance with Crocodile (Andrei Kondakov & Brazil All Stars feat. David Sanchez) music: A. Kondakov
    06. Tales for Alexandra (Arkady Shilkloper) music: A. Shilkloper
    07. No Title (Arkhangelsk Jazz Friends) music: V. Zelenov
    08. Road Song (Vyacheslav Gayvoronsky/Vladimir Volkov) music: M. Glinka
    09. Precious Friend (Sergey Manukian) music: S. Manukian - E. Karpinskaya
    10. Hands of Three (Nataliya Lebedeva Trio) music: N. Lebedeva
    11. Pra Dizer Adeus (Yelena Popova) music: E. Lobo
    12. Oh, Honey (Valery Volkov) music: V. Volkov
    13. Autumn Night (Camerata) music: O. Vorobjeva
    14. Soul (In the Memory of Anna Kogan) (Igor Zakus) music: I. Zakus
    15. Apple Tea (Apple Tea) music: I. Satsevich
    16. Final

Тривалість: 01:13:51
Мова: Iнструментальнi композицii
Аудіо-кодек: FLAC
Бітрейт: 484 - 929 кб/с
Джерело: трекер
Додаткова інформація:
EAC
Exact Audio Copy V1.2 from 12. August 2016

EAC extraction logfile from 16. August 2016, 15:03

Various Artist / Alexey Kogan...Just 50

Used drive : Optiarc DVD RW AD-7280S Adapter: 1 ID: 0

Read mode : Secure
Utilize accurate stream : Yes
Defeat audio cache : Yes
Make use of C2 pointers : No

Read offset correction : 48
Overread into Lead-In and Lead-Out : No
Fill up missing offset samples with silence : Yes
Delete leading and trailing silent blocks : No
Null samples used in CRC calculations : Yes
Used interface : Native Win32 interface for Win NT & 2000
Gap handling : Appended to previous track

Used output format : User Defined Encoder
Selected bitrate : 768 kBit/s
Quality : High
Add ID3 tag : No
Command line compressor : C:\Program Files (x86)\Exact Audio Copy\FLAC\FLAC.EXE
Additional command line options : -8 -V -T "TITLE=%title%" -T "ARTIST=%artist%" -T "ALBUMARTIST=%albumartist%" -T "ALBUM=%albumtitle%" -T "DATE=%year%" -T "TRACKNUMBER=%tracknr%" -T "TRACKTOTAL=%numtracks%" -T "GENRE=%genre%" -T "COMMENT=%comment%" -T "PERFORMER=%albuminterpret%" -T "COMPOSER=%composer%" %source% -o %dest%

TOC of the extracted CD

Track | Start | Length | Start sector | End sector
---------------------------------------------------------
1 | 0:00.00 | 0:48.71 | 0 | 3670
2 | 0:48.71 | 7:22.31 | 3671 | 36851
3 | 8:11.27 | 5:52.27 | 36852 | 63278
4 | 14:03.54 | 1:57.26 | 63279 | 72079
5 | 16:01.05 | 7:55.11 | 72080 | 107715
6 | 23:56.16 | 5:30.03 | 107716 | 132468
7 | 29:26.19 | 5:49.66 | 132469 | 158709
8 | 35:16.10 | 1:49.00 | 158710 | 166884
9 | 37:05.10 | 5:39.69 | 166885 | 192378
10 | 42:45.04 | 3:28.58 | 192379 | 208036
11 | 46:13.62 | 5:56.63 | 208037 | 234799
12 | 52:10.50 | 4:15.17 | 234800 | 253941
13 | 56:25.67 | 4:19.40 | 253942 | 273406
14 | 60:45.32 | 5:07.40 | 273407 | 296471
15 | 65:52.72 | 6:11.67 | 296472 | 324363
16 | 72:04.64 | 1:46.53 | 324364 | 332366

Track 1

Filename D:\Downloads\Музыка\ТОРРЕНТЫ\Alexey Kogan - Just 50\Various Artist\Alexey Kogan...Just 50\01. Intro.wav

Pre-gap length 0:00:02.00

Peak level 97.2 %
Extraction speed 1.5 X
Track quality 100.0 %
Test CRC 4B4572E5
Copy CRC 4B4572E5
Track not present in AccurateRip database
Copy OK

Track 2

Filename D:\Downloads\Музыка\ТОРРЕНТЫ\Alexey Kogan - Just 50\Various Artist\Alexey Kogan...Just 50\02. X-City.wav

Peak level 97.7 %
Extraction speed 2.8 X
Track quality 100.0 %
Test CRC F2480C66
Copy CRC F2480C66
Track not present in AccurateRip database
Copy OK

Track 3

Filename D:\Downloads\Музыка\ТОРРЕНТЫ\Alexey Kogan - Just 50\Various Artist\Alexey Kogan...Just 50\03. Our Spanish Love Song.wav

Peak level 93.3 %
Extraction speed 3.1 X
Track quality 100.0 %
Test CRC 45B09EA6
Copy CRC 45B09EA6
Track not present in AccurateRip database
Copy OK

Track 4

Filename D:\Downloads\Музыка\ТОРРЕНТЫ\Alexey Kogan - Just 50\Various Artist\Alexey Kogan...Just 50\04. Shkatulka.wav

Peak level 51.9 %
Extraction speed 2.8 X
Track quality 100.0 %
Test CRC DFE35D6B
Copy CRC DFE35D6B
Track not present in AccurateRip database
Copy OK

Track 5

Filename D:\Downloads\Музыка\ТОРРЕНТЫ\Alexey Kogan - Just 50\Various Artist\Alexey Kogan...Just 50\05. Dance with Crocodile.wav

Peak level 93.1 %
Extraction speed 3.7 X
Track quality 100.0 %
Test CRC AA8FD726
Copy CRC AA8FD726
Track not present in AccurateRip database
Copy OK

Track 6

Filename D:\Downloads\Музыка\ТОРРЕНТЫ\Alexey Kogan - Just 50\Various Artist\Alexey Kogan...Just 50\06. Tales For Alexandra.wav

Peak level 88.7 %
Extraction speed 3.9 X
Track quality 100.0 %
Test CRC F458605D
Copy CRC F458605D
Track not present in AccurateRip database
Copy OK

Track 7

Filename D:\Downloads\Музыка\ТОРРЕНТЫ\Alexey Kogan - Just 50\Various Artist\Alexey Kogan...Just 50\07. No Title.wav

Peak level 86.9 %
Extraction speed 4.1 X
Track quality 100.0 %
Test CRC 57DC202A
Copy CRC 57DC202A
Track not present in AccurateRip database
Copy OK

Track 8

Filename D:\Downloads\Музыка\ТОРРЕНТЫ\Alexey Kogan - Just 50\Various Artist\Alexey Kogan...Just 50\08. Road Song.wav

Peak level 93.3 %
Extraction speed 3.5 X
Track quality 100.0 %
Test CRC CA7842CE
Copy CRC CA7842CE
Track not present in AccurateRip database
Copy OK

Track 9

Filename D:\Downloads\Музыка\ТОРРЕНТЫ\Alexey Kogan - Just 50\Various Artist\Alexey Kogan...Just 50\09. Precious Friend.wav

Peak level 72.8 %
Extraction speed 4.0 X
Track quality 99.9 %
Test CRC 729E01B8
Copy CRC 729E01B8
Track not present in AccurateRip database
Copy OK

Track 10

Filename D:\Downloads\Музыка\ТОРРЕНТЫ\Alexey Kogan - Just 50\Various Artist\Alexey Kogan...Just 50\10. Hands of Three.wav

Peak level 73.1 %
Extraction speed 4.3 X
Track quality 100.0 %
Test CRC 7AC5115D
Copy CRC 7AC5115D
Track not present in AccurateRip database
Copy OK

Track 11

Filename D:\Downloads\Музыка\ТОРРЕНТЫ\Alexey Kogan - Just 50\Various Artist\Alexey Kogan...Just 50\11. Pra Dizer Adeus.wav

Peak level 59.9 %
Extraction speed 4.8 X
Track quality 100.0 %
Test CRC 51B66C2D
Copy CRC 51B66C2D
Track not present in AccurateRip database
Copy OK

Track 12

Filename D:\Downloads\Музыка\ТОРРЕНТЫ\Alexey Kogan - Just 50\Various Artist\Alexey Kogan...Just 50\12. Oh Honey.wav

Peak level 71.9 %
Extraction speed 4.7 X
Track quality 100.0 %
Test CRC 7B1D558C
Copy CRC 7B1D558C
Track not present in AccurateRip database
Copy OK

Track 13

Filename D:\Downloads\Музыка\ТОРРЕНТЫ\Alexey Kogan - Just 50\Various Artist\Alexey Kogan...Just 50\13. Autumn Night.wav

Peak level 53.1 %
Extraction speed 4.9 X
Track quality 100.0 %
Test CRC BDA09445
Copy CRC BDA09445
Track not present in AccurateRip database
Copy OK

Track 14

Filename D:\Downloads\Музыка\ТОРРЕНТЫ\Alexey Kogan - Just 50\Various Artist\Alexey Kogan...Just 50\14. Soul.wav

Peak level 84.1 %
Extraction speed 5.1 X
Track quality 100.0 %
Test CRC 6EF39EA9
Copy CRC 6EF39EA9
Track not present in AccurateRip database
Copy OK

Track 15

Filename D:\Downloads\Музыка\ТОРРЕНТЫ\Alexey Kogan - Just 50\Various Artist\Alexey Kogan...Just 50\15. Apple Tea.wav

Peak level 88.9 %
Extraction speed 5.4 X
Track quality 100.0 %
Test CRC B48E5ACC
Copy CRC B48E5ACC
Track not present in AccurateRip database
Copy OK

Track 16

Filename D:\Downloads\Музыка\ТОРРЕНТЫ\Alexey Kogan - Just 50\Various Artist\Alexey Kogan...Just 50\16. Final.wav

Peak level 65.2 %
Extraction speed 4.5 X
Track quality 100.0 %
Test CRC DBC04FCA
Copy CRC DBC04FCA
Track not present in AccurateRip database
Copy OK

None of the tracks are present in the AccurateRip database

No errors occurred

End of status report

---- CUETools DB Plugin V2.1.6

[CTDB TOCID: V4N.zNX3NKHAS1sGi0ijzfTSzcY-] disk not present in database
Submit result: V4N.zNX3NKHAS1sGi0ijzfTSzcY- has been uploaded

==== Log checksum 05D1629B502137198F80DB92158F26C92803401B7E13B47DDB32E34B1D99F7F8 ====
(.CUE)
REM GENRE Jazz
REM DATE 2007
REM DISCID F8114F10
REM COMMENT "ExactAudioCopy v1.2"
PERFORMER "Various Artist"
TITLE "Alexey Kogan...Just 50"
REM COMPOSER ""
FILE "Various Artist\Alexey Kogan...Just 50\01. Intro.wav" WAVE
TRACK 01 AUDIO
TITLE "Intro"
PERFORMER " "
REM COMPOSER ""
FLAGS DCP
INDEX 01 00:00:00
FILE "Various Artist\Alexey Kogan...Just 50\02. X-City.wav" WAVE
TRACK 02 AUDIO
TITLE "X-City"
PERFORMER " Cxid-Side"
REM COMPOSER ""
FLAGS DCP
INDEX 01 00:00:00
FILE "Various Artist\Alexey Kogan...Just 50\03. Our Spanish Love Song.wav" WAVE
TRACK 03 AUDIO
TITLE "Our Spanish Love Song"
PERFORMER "Yuri Shepeta & Fest"
REM COMPOSER ""
FLAGS DCP
INDEX 01 00:00:00
FILE "Various Artist\Alexey Kogan...Just 50\04. Shkatulka.wav" WAVE
TRACK 04 AUDIO
TITLE "Shkatulka"
PERFORMER "Enver Izmailov"
REM COMPOSER ""
FLAGS DCP
INDEX 01 00:00:00
FILE "Various Artist\Alexey Kogan...Just 50\05. Dance with Crocodile.wav" WAVE
TRACK 05 AUDIO
TITLE "Dance with Crocodile"
PERFORMER "Andrei Kondakov"
REM COMPOSER ""
FLAGS DCP
INDEX 01 00:00:00
FILE "Various Artist\Alexey Kogan...Just 50\06. Tales For Alexandra.wav" WAVE
TRACK 06 AUDIO
TITLE "Tales For Alexandra"
PERFORMER "Arkady Shilkloper"
REM COMPOSER ""
FLAGS DCP
INDEX 01 00:00:00
FILE "Various Artist\Alexey Kogan...Just 50\07. No Title.wav" WAVE
TRACK 07 AUDIO
TITLE "No Title"
PERFORMER "Arkhangelsk Jazz Friends"
REM COMPOSER ""
FLAGS DCP
INDEX 01 00:00:00
FILE "Various Artist\Alexey Kogan...Just 50\08. Road Song.wav" WAVE
TRACK 08 AUDIO
TITLE "Road Song"
PERFORMER "Gayvoronsky - Volkov"
REM COMPOSER ""
FLAGS DCP
INDEX 01 00:00:00
FILE "Various Artist\Alexey Kogan...Just 50\09. Precious Friend.wav" WAVE
TRACK 09 AUDIO
TITLE "Precious Friend"
PERFORMER "Sergey Manoukyan"
REM COMPOSER ""
FLAGS DCP
INDEX 01 00:00:00
FILE "Various Artist\Alexey Kogan...Just 50\10. Hands of Three.wav" WAVE
TRACK 10 AUDIO
TITLE "Hands of Three"
PERFORMER "Nataliya Lebedeva Trio"
REM COMPOSER ""
FLAGS DCP
INDEX 01 00:00:00
FILE "Various Artist\Alexey Kogan...Just 50\11. Pra Dizer Adeus.wav" WAVE
TRACK 11 AUDIO
TITLE "Pra Dizer Adeus"
PERFORMER "Yelena Popova"
REM COMPOSER ""
FLAGS DCP
INDEX 01 00:00:00
FILE "Various Artist\Alexey Kogan...Just 50\12. Oh Honey.wav" WAVE
TRACK 12 AUDIO
TITLE "Oh Honey"
PERFORMER "Valery Volkov"
REM COMPOSER ""
FLAGS DCP
INDEX 01 00:00:00
FILE "Various Artist\Alexey Kogan...Just 50\13. Autumn Night.wav" WAVE
TRACK 13 AUDIO
TITLE "Autumn Night"
PERFORMER "Camerata"
REM COMPOSER ""
FLAGS DCP
INDEX 01 00:00:00
FILE "Various Artist\Alexey Kogan...Just 50\14. Soul.wav" WAVE
TRACK 14 AUDIO
TITLE "Soul"
PERFORMER "Igor Zakus"
REM COMPOSER ""
FLAGS DCP
INDEX 01 00:00:00
FILE "Various Artist\Alexey Kogan...Just 50\15. Apple Tea.wav" WAVE
TRACK 15 AUDIO
TITLE "Apple Tea"
PERFORMER "Apple Tea"
REM COMPOSER ""
FLAGS DCP
INDEX 01 00:00:00
FILE "Various Artist\Alexey Kogan...Just 50\16. Final.wav" WAVE
TRACK 16 AUDIO
TITLE "Final"
PERFORMER " "
REM COMPOSER ""
FLAGS DCP
INDEX 01 00:00:00
Навіть не знаю, видавалося взагалі де-небудь в світі щось подібне! Олексій Коган, світлий ангел джазу в Україні, чудесним чином відзначив власний ювілей. Не просто великим концертом, але ще і збірним диском. На ньому зображені записи музикантів, з якими Олексію доводилося працювати багато років, музикантів-друзів, більшість з яких він знає мало не всі 50 ювілейних років. В альбомі представлені групи "Skhid-Side", "Andrei Kondakov & Brasil All Stars", "Arkhangelsk Jazz Friends", квартет Юрія Шепети, тріо Н.Лебедева-І.Закус-А.Фантаев, дует В'ячеслав Гайворонський-Володимир Волков, а також Енвер Ізмайлов, Аркадій Шилклопер, Сергій Манукян та інші.
Приємно, що серед учасників програми - білоруські групи "Camerata" і "Apple Tea". Відмінний підбір, погодьтеся, що за стилями, що за виконавцями. Такого асортименту не так на один ювілей вистачить. Але найголовніше те, що, святкуючи півстоліття в джазі, Олексій не перетворив цю подію в якусь тусовку для вузького кола друзів і приятелів-музикантів. По-перше, відбувся дійсно великий концерт. Не можу сказати, склали чи зроблені на ньому записи репертуар саме цього альбому. Швидше за все, немає: зібрати в одному концерті такий набір виконавців не по силам, мабуть, і самому Когану. Але, тим не менше (по-друге), ювіляр щедро поділився власною радістю і з широким колом любителів джазу, видавши ці записи.
І в майбутньому , почавши слухати цей альбом , завжди будеш пам'ятати про те , що є в Києві чоловік , який вміє робити свята не тільки з приводу ювілею , а й кожен день .
(Дмитро Подберезький)


Якщо Ви справді бажаєте підтримати українське - після прослуховування, якщо музика вам сподобалась, придбайте ліцензійний диск. Підтримаймо вітчизняних виконавців!


Срібний реліз (на рейтинг впливає 50% завантаженого)
 Трекер:    Зареєстрований   

Завантажити / скачати українську музику



відео для новачків



 Зареєстрований:   2016-08-16 18:37
 Розмір:   488 MB 
 Оцінка музики:   10/10 (Голосів: 3)
   
kolpavel 
VIP


З нами з: 04.05.14
Востаннє: 04.12.16
Повідомлень: 1060

2016-08-16 18:46  

Ваш часовий пояс: GMT + 2 Години

Нова тема   Відповісти