Завантажити та скачати торренти українською


Мисливець і Снігова королева / The Huntsman Winter's War (2016) 1080p 3D [HalfOverUnder] Ukr/Eng | Sub Ukr/Eng

Нові коментарі

Нова тема   Відповісти
Автор Повідомлення
-VipeR- 
VIP


З нами з: 17.07.08
Востаннє: 11.12.16
Повідомлень: 275

2016-08-10 11:59  
Мисливець і Снігова королева / The Huntsman Winter's War (2016) 1080p 3D [HalfOverUnder] Ukr/Eng | Sub Ukr/Eng

Мисливець і Снігова королева / The Huntsman Winter's War (2016) 1080p 3D [HalfOverUnder] Ukr/Eng | Sub Ukr/Eng


Жанр: драма, пригоди, фентезі, дія
Країна: США



Кінокомпанія: Universal Pictures, Roth Films
Режисер: Седрік Ніколя-Троян
Актори: Кріс Гемсворт, Джессіка Честейн, Емілі Блант, Шарліз Терон, Сем Клафлін, Колін Морґан, Нік Фрост, Роб Брайдон, Софі Куксон, Александра Роач

Сюжет:
Продовження пригодницького фільму "Білосніжка і мисливець", засноване на відомих персонажаж із казок братів Ґрімм і Ганса Крістіана Андерсена, зі світовими зірками в головних ролях: Кріс Гемсворт, Емілі Блант, Джессіка Честейн, Шарліз Терон. Задовго до того, як померти від рук Білосніжки, зла королева Равенна правила королівством, як найпрекрасніша на землі. Але у її сестри Фреї народилася дівчинка, чия краса повинна була затьмарити всіх у королівстві. Равенна вбила племінницю і Фрея занурилася в горе. Вона набула смертельну силу - здатність заморозити будь-якого ворога. Таку душевну травму нікому не під силу забути. Фрея помститься сестрі.


Тривалість: 01:53:57
Якість: 1080p 3D [HalfOverUnder]
Відео:
кодек:
розмір кадру: 1920 х 1080
бітрейт: 7388 кб/с

Аудіо # 1:
мова: українська
переклад: професійний дубльований
кодек: 2.0
бітрейт: 192 кб/с

Аудіо # 2:
мова: англійська
переклад: оригінал
кодек: 5.1
бітрейт: 1509 кб/с

Аудіо # 3:
мова: англійська
переклад: оригінал Descriptive (опис)
кодек: 2.0
бітрейт: 192 кб/с

Аудіо # 4:
мова: англійська
переклад: оригінал коментарі режисера Седріка Ніколя-Трояна
кодек: 2.0
бітрейт: 192 кб/с

Субтитри:
мова: українська (повні) (igor911)
тип: програмні (м'які)
формат: *.srt

Субтитри:
мова: англійська (повні)
тип: програмні (м'які)
формат: *.srt
MediaInfo
Код:
General
Unique ID                      : 174061099349659017885863172447884219153 (0x82F2F2C659085A7CAF7FEA90905F1311)
Complete name                  : D:\3D\Художні\The Huntsman Winter's War (2016) [Ukr,Eng sub.Ukr,Eng] 3D 1080p [HalfOverUnder] [Hurtom].mkv
Format                         : Matroska
Format version                 : Version 4 / Version 2
File size                      : 7.54 GiB
Duration                       : 1h 53mn
Overall bit rate               : 9 476 Kbps
Movie name                     : Мисливець і Снігова королева / The Huntsman Winter's War (2016) у 3D
Encoded date                   : UTC 2016-08-10 09:12:49
Writing application            : mkvmerge v8.8.0 ('Wind at my back') 64bit
Writing library                : libebml v1.3.3 + libmatroska v1.4.4
Cover                          : Yes
Attachments                    : cover.jpg

Video
ID                             : 1
Format                         : AVC
Format/Info                    : Advanced Video Codec
Format profile                 : [email protected]
Format settings, CABAC         : Yes
Format settings, ReFrames      : 4 frames
Codec ID                       : V_MPEG4/ISO/AVC
Duration                       : 1h 53mn
Bit rate                       : 7 388 Kbps
Width                          : 1 920 pixels
Height                         : 1 080 pixels
Display aspect ratio           : 16:9
Frame rate mode                : Constant
Frame rate                     : 23.976 (24000/1001) fps
Color space                    : YUV
Chroma subsampling             : 4:2:0
Bit depth                      : 8 bits
Scan type                      : Progressive
Bits/(Pixel*Frame)             : 0.149
Stream size                    : 5.88 GiB (78%)
Language                       : English
Default                        : Yes
Forced                         : No

Audio #1
ID                             : 2
Format                         : AC-3
Format/Info                    : Audio Coding 3
Mode extension                 : CM (complete main)
Format settings, Endianness    : Big
Codec ID                       : A_AC3
Duration                       : 1h 53mn
Bit rate mode                  : Constant
Bit rate                       : 192 Kbps
Channel(s)                     : 2 channels
Channel positions              : Front: L R
Sampling rate                  : 48.0 KHz
Frame rate                     : 31.250 fps (1536 spf)
Compression mode               : Lossy
Delay relative to video        : 9ms
Stream size                    : 156 MiB (2%)
Title                          : Dub [LeDoyen] 2.0 192 kbps [Hurtom-Covenant]
Language                       : Ukrainian
Default                        : Yes
Forced                         : No

Audio #2
ID                             : 3
Format                         :
Format/Info                    : Digital Theater Systems
Mode                           : 16
Format settings, Endianness    : Big
Codec ID                       : A_DTS
Duration                       : 1h 53mn
Bit rate mode                  : Constant
Bit rate                       : 1 509 Kbps
Channel(s)                     : 6 channels
Channel positions              : Front: L C R, Side: L R, LFE
Sampling rate                  : 48.0 KHz
Frame rate                     : 93.750 fps (512 spf)
Bit depth                      : 24 bits
Compression mode               : Lossy
Stream size                    : 1.20 GiB (16%)
Title                          : Original, 5.1 1509 kbps
Language                       : English
Default                        : No
Forced                         : No

Audio #3
ID                             : 4
Format                         : AC-3
Format/Info                    : Audio Coding 3
Format profile                 : Dolby Digital
Mode extension                 : CM (complete main)
Format settings, Endianness    : Big
Codec ID                       : A_AC3
Duration                       : 1h 53mn
Bit rate mode                  : Constant
Bit rate                       : 192 Kbps
Channel(s)                     : 2 channels
Channel positions              : Front: L R
Sampling rate                  : 48.0 KHz
Frame rate                     : 31.250 fps (1536 spf)
Compression mode               : Lossy
Stream size                    : 157 MiB (2%)
Title                          : Descriptive
Language                       : English
Default                        : No
Forced                         : No

Audio #4
ID                             : 5
Format                         : AC-3
Format/Info                    : Audio Coding 3
Format profile                 : Dolby Digital
Mode extension                 : CM (complete main)
Format settings, Endianness    : Big
Codec ID                       : A_AC3
Duration                       : 1h 53mn
Bit rate mode                  : Constant
Bit rate                       : 192 Kbps
Channel(s)                     : 2 channels
Channel positions              : Front: L R
Sampling rate                  : 48.0 KHz
Frame rate                     : 31.250 fps (1536 spf)
Compression mode               : Lossy
Stream size                    : 157 MiB (2%)
Title                          : Commentary by director Cedric Nicolas-Troyan
Language                       : English
Default                        : No
Forced                         : No

Text #1
ID                             : 6
Format                         : UTF-8
Codec ID                       : S_TEXT/UTF8
Codec ID/Info                  : UTF-8 Plain Text
Duration                       : 1h 44mn
Bit rate                       : 54 bps
Count of elements              : 1009
Stream size                    : 41.7 KiB (0%)
Title                          : Ukr Full [Hurtom-igor911], kibril
Language                       : Ukrainian
Default                        : No
Forced                         : No

Text #2
ID                             : 7
Format                         : UTF-8
Codec ID                       : S_TEXT/UTF8
Codec ID/Info                  : UTF-8 Plain Text
Duration                       : 1h 43mn
Bit rate                       : 36 bps
Count of elements              : 1039
Stream size                    : 27.5 KiB (0%)
Title                          : Eng full
Language                       : English
Default                        : No
Forced                         : No

Menu
00:00:00.000                   : en:
00:06:26.427                   : en:
00:09:26.857                   : en:
00:15:03.193                   : en:
00:21:33.500                   : en:
00:26:52.235                   : en:
00:32:34.744                   : en:
00:36:51.167                   : en:
00:42:17.952                   : en:
00:47:27.261                   : en:
00:54:37.816                   : en:
00:59:26.229                   : en:
01:06:18.974                   : en:
01:10:21.508                   : en:
01:17:45.118                   : en:
01:23:17.492                   : en:
01:28:06.864                   : en:
01:33:28.811                   : en:
01:42:20.759                   : en:
01:44:26.426                   : en:
Скріншоти
Джерело: &
Подяка за українську доріжку пану Covenant

Відео для перегляду на 3D обладнанні!


 Трекер:    Зареєстрований   

Завантажити / скачати фільм українською



відео для новачків



 Зареєстрований:   2016-08-10 11:59
 Розмір:   7.54 GB 
 Оцінка фільму:   7.8/10 (Голосів: 4)
   
QWERTYJJJJJJ 
Поважний учасник


З нами з: 06.11.12
Востаннє: 07.12.16
Повідомлень: 198

2016-08-10 21:35  
Джерело озвучення відоме?
igor911 
Відео Гуртом
Відео Гуртом


З нами з: 18.01.08
Востаннє: 11.12.16
Повідомлень: 5226

2016-08-11 10:14  
QWERTYJJJJJJ
igor911 написано:
Фільм дубльовано студією LeDoyen на замовлення B&H Film Distribution

Ваш часовий пояс: GMT + 2 Години

Нова тема   Відповісти