Завантажити та скачати торренти українською


Загублений табір / Camp Nowhere (1994) AVC Ukr/Eng | Sub Eng

Нові коментарі

Нова тема   Відповісти
Автор Повідомлення
Anonymous 







2016-08-06 17:45  
Загублений табір / Camp Nowhere (1994) AVC Ukr/Eng | Sub Eng

Загублений табір / Camp Nowhere (1994) AVC Ukr/Eng | Sub Eng

Альтернативний постер


повнорозмірні зображення відкриються по кліку (з натиснутим CTRL чи кліком середньою кнопкою мишки - у новій вкладці)


Жанр: сімейний, пригодницький, комедія
Країна: США



Кінокомпанія: Hollywood Pictures
Режисер: Джонатан Принс / Jonathan Prince
Актори: Крістофер Ллойд / Christopher Lloyd, Джонатан Джексон / Jonathan Jackson, Венді Маккена / Wendy Makkena, М. Еммет Волш / M. Emmet Walsh, Джон Путч / John Putch, Пітер Сколарі / Peter Scolari, Ромі Віндзор / Romy Windsor, Елісон Мак / Allison Mack, Том Вілсон / Thomas F. Wilson, Джесіка Альба / Jessica Alba та інші

Сюжет:
Літній табір - відпочинок тільки з першого погляду. Самі діти мають на цей рахунок свою думку, тому, коли Морріс Хіммель дізнається, що йому разом з друзями доведеться провести літо на такому «відпочинку», він вирішує діяти. Спільно компанія вирішується на веселу авантюру: вони організують свій власний табір, райський куточок без батьків з морем розваг. Їм вдається переконати довірливих батьків в існуванні міфічного куточка дитячого відпочинку і навіть витратити їх гроші на це. Однак попереду друзів чекає проблема, що загрожує обернутися великими неприємностями: наближається батьківський день, коли обман може легко розкритися.


Рейтинг MPAA: PG - рекомендується присутність батьків
Вікова категорія: 6+

Тривалість: 01:35:47
Якість: AVC (власний ріп)
Відео:
кодек:
розмір кадру: 1024 х 576
бітрейт: 4762 Кбіт/с [crf=17]

Аудіо # 1:
мова: українська
переклад: багатоголосий закадровий
кодек: 2.0
бітрейт: 192 Кбіт/с
примітка: присутні два коротких (~1 хв.) фрагмента без перекладу - на них є форсовані субтитри

Аудіо # 2:
мова: англійська
переклад: оригінал
кодек: 2.0
бітрейт: 224 Кбіт/с

Субтитри #1:
мова: українська (форсовані) - на два коротких фрагменти без перекладу
тип: програмні (м'які)
формат: *.srt

Субтитри # 2:
мова: англійська
тип: програмні (м'які)
формат: *.srt

Збережено оригінальні розділи, як на Blu-ray.
MediaInfo та log
Код:
Complete name               : Camp Nowhere (1994) [Ukr,Eng sub.Eng] AVC [Hurtom].mkv
Format                      : Matroska
Format version              : Version 4 / Version 2
File size                   : 3.47 GiB
Duration                    : 1 h 35 min
Overall bit rate            : 5 181 kb/s
Movie name                  : Загублений табір / Camp Nowhere (1994) [Ukr,Eng sub.Eng] AVC [Hurtom-igor911]
Encoded date                : UTC 2016-07-11 20:26:13
Writing application         : mkvmerge v9.2.0 ('Photograph') 64bit
Writing library             : libebml v1.3.3 + libmatroska v1.4.4
Cover                       : Yes
Attachments                 : cover.jpg / x264log.txt

Video
ID                          : 1
Format                      : AVC
Format/Info                 : Advanced Video Codec
Format profile              : [email protected]
Format settings, CABAC      : Yes
Format settings, ReFrames   : 12 frames
Codec ID                    : V_MPEG4/ISO/AVC
Duration                    : 1 h 35 min
Bit rate                    : 4 762 kb/s
Width                       : 1 024 pixels
Height                      : 576 pixels
Display aspect ratio        : 16:9
Frame rate mode             : Constant
Frame rate                  : 23.976 (24000/1001) FPS
Color space                 : YUV
Chroma subsampling          : 4:2:0
Bit depth                   : 8 bits
Scan type                   : Progressive
Bits/(Pixel*Frame)          : 0.337
Stream size                 : 3.19 GiB (92%)
Title                       : Загублений табір / Camp Nowhere (1994) AVC [Hurtom-igor911]
Writing library             : core 148 r2638 7599210
Encoding settings           : cabac=1 / ref=12 / deblock=1:-1:-1 / analyse=0x3:0x133 / me=umh / subme=10 / psy=1 / psy_rd=1.00:0.15 / mixed_ref=1 / me_range=32 / chroma_me=1 / trellis=2 / 8x8dct=1 / cqm=0 / deadzone=21,11 / fast_pskip=0 / chroma_qp_offset=-3 / threads=12 / lookahead_threads=2 / sliced_threads=0 / nr=0 / decimate=1 / interlaced=0 / bluray_compat=0 / constrained_intra=0 / bframes=8 / b_pyramid=2 / b_adapt=2 / b_bias=0 / direct=3 / weightb=1 / open_gop=0 / weightp=2 / keyint=240 / keyint_min=23 / scenecut=40 / intra_refresh=0 / rc_lookahead=60 / rc=crf / mbtree=1 / crf=17.0 / qcomp=0.60 / qpmin=0 / qpmax=69 / qpstep=4 / vbv_maxrate=50000 / vbv_bufsize=62500 / crf_max=0.0 / nal_hrd=none / filler=0 / ip_ratio=1.40 / aq=1:1.00
Language                    : Ukrainian
Default                     : Yes
Forced                      : No

Audio #1
ID                          : 2
Format                      : AC-3
Format/Info                 : Audio Coding 3
Mode extension              : CM (complete main)
Format settings, Endianness : Big
Codec ID                    : A_AC3
Duration                    : 1 h 35 min
Bit rate mode               : Constant
Bit rate                    : 192 kb/s
Channel(s)                  : 2 channels
Channel positions           : Front: L R
Sampling rate               : 48.0 kHz
Frame rate                  : 31.250 FPS (1536 spf)
Compression mode            : Lossy
Stream size                 : 132 MiB (4%)
Title                       : MVO [Novyj] 2.0 192 kbps [Hurtom-NemoInFire,POMEO]
Language                    : Ukrainian
Default                     : Yes
Forced                      : No

Audio #2
ID                          : 3
Format                      : AC-3
Format/Info                 : Audio Coding 3
Mode extension              : CM (complete main)
Format settings, Endianness : Big
Codec ID                    : A_AC3
Duration                    : 1 h 35 min
Bit rate mode               : Constant
Bit rate                    : 224 kb/s
Channel(s)                  : 2 channels
Channel positions           : Front: L R
Sampling rate               : 48.0 kHz
Frame rate                  : 31.250 FPS (1536 spf)
Compression mode            : Lossy
Stream size                 : 153 MiB (4%)
Title                       : Orirginal, 2.0 224 kbps
Language                    : English
Default                     : No
Forced                      : No

Text #1
ID                          : 4
Format                      : UTF-8
Codec ID                    : S_TEXT/UTF8
Codec ID/Info               : UTF-8 Plain Text
Duration                    : 29 min
Bit rate                    : 5 b/s
Count of elements           : 15
Stream size                 : 1.16 KiB (0%)
Title                       : Ukr forced
Language                    : Ukrainian
Default                     : Yes
Forced                      : Yes

Text #2
ID                          : 5
Format                      : UTF-8
Codec ID                    : S_TEXT/UTF8
Codec ID/Info               : UTF-8 Plain Text
Duration                    : 1 h 35 min
Bit rate                    : 73 b/s
Count of elements           : 1325
Stream size                 : 51.3 KiB (0%)
Title                       : Eng full
Language                    : English
Default                     : No
Forced                      : No

Menu
00:00:00.000                : en:00:00:00.000
00:04:18.883                : en:00:04:18.883
00:13:00.529                : en:00:13:00.529
00:19:45.559                : en:00:19:45.559
00:28:40.552                : en:00:28:40.552
00:37:45.596                : en:00:37:45.596
00:47:57.708                : en:00:47:57.708
00:56:57.997                : en:00:56:57.997
01:07:10.192                : en:01:07:10.192
01:14:38.849                : en:01:14:38.849
01:21:29.426                : en:01:21:29.426
01:32:38.511                : en:01:32:38.511


Код:
raw [info]: 1024x576p 1:1 @ 24000/1001 fps (cfr)
[info]: using SAR=1/1
[info]: using cpu capabilities: MMX2 SSE2Fast SSSE3 SSE4.2 AVX
[info]: profile High, level 4.1
[info]: frame I:1361  Avg QP:14.73  size:118927
[info]: frame P:27220 Avg QP:18.23  size: 47631
[info]: frame B:109227 Avg QP:20.67  size: 17971
[info]: consecutive B-frames:  1.6%  1.4%  4.9% 19.4% 15.9% 38.8%  8.4%  5.7%  4.0%
[info]: mb I  I16..4: 10.0% 62.5% 27.5%
[info]: mb P  I16..4:  1.0% 16.2%  2.6%  P16..4: 32.0% 25.3% 18.4%  1.6%  0.6%    skip: 2.3%
[info]: mb B  I16..4:  0.1%  2.6%  0.3%  B16..8: 41.7% 17.0%  5.2%  direct:10.3%  skip:22.9%  L0:43.6% L1:40.2% BI:16.2%
[info]: 8x8 transform intra:80.9% inter:56.8%
[info]: direct mvs  spatial:100.0% temporal:0.0%
[info]: coded y,uvDC,uvAC intra: 95.7% 85.4% 61.2% inter: 47.2% 29.0% 4.7%
[info]: i16 v,h,dc,p: 40% 13% 16% 31%
[info]: i8 v,h,dc,ddl,ddr,vr,hd,vl,hu: 11%  8% 10%  9% 13% 13% 11% 12% 12%
[info]: i4 v,h,dc,ddl,ddr,vr,hd,vl,hu: 12%  9%  4%  9% 14% 15% 12% 12% 12%
[info]: i8c dc,h,v,p: 43% 21% 19% 17%
[info]: Weighted P-Frames: Y:7.2% UV:3.8%
[info]: ref P L0: 37.3% 12.0% 19.1%  7.1%  6.8%  4.1%  4.3%  2.1%  2.3%  1.6%  1.8%  1.4%  0.2%  0.0%
[info]: ref B L0: 69.7% 12.6%  6.1%  3.3%  2.3%  1.9%  1.5%  1.0%  0.8%  0.5%  0.2%
[info]: ref B L1: 92.6%  7.4%
[info]: kb/s:4761.92
encoded 137808 frames, 11.41 fps, 4761.92 kb/s
Constant Quality Mode: Quality 17 computed...
Video Bitrate Obtained (approximate): 4761 kbit/s
Більше скріншотів


Джерело:
Подяка п.POMEO за запис та п.NemoInFire за зведення української доріжки

Особиста оцінка: 8 - рекомендую всім дітям та їх батькам

ЗАЛИШАЙТЕСЬ ЯКОМОГА ДОВШЕ НА РОЗДАЧІ!
СКАЧАВ САМ - ДАЙ СКАЧАТИ ІНШИМ


Срібний реліз (на рейтинг впливає 50% завантаженого)
 Трекер:    Зареєстрований   

Завантажити / скачати фільм українською



відео для новачків



 Зареєстрований:   2016-08-06 17:45
 Розмір:   3.47 GB 
 Оцінка фільму:   2.5/10 (Голосів: 12)
   
Інші релізи
Ваш часовий пояс: GMT + 2 Години

Нова тема   Відповісти