Завантажити та скачати торренти українською


Небо і земля / Heaven & Earth (1993) 720p Ukr/Eng | Sub Eng

Нові коментарі

Нова тема   Відповісти
Автор Повідомлення
Anonymous 







2016-08-06 13:34  
Небо і земля / Heaven & Earth (1993) 720p Ukr/Eng | Sub Eng

Небо і земля / Heaven & Earth (1993) 720p Ukr/Eng | Sub Eng

Альтернативні постери




повнорозмірні зображення відкриються по кліку (з натиснутим CTRL чи кліком середньою кнопкою мишки - у новій вкладці)


Жанр: військова драма, біографічний, історичний
Країна: США, Франція



Кінокомпанія: Alcor Films, Canal+, Ixtlan, New Regency Pictures, Regency Enterprises, Warner Bros.
Режисер: Олівер Стоун / Oliver Stone
Актори: Томмі Лі Джонс / Tommy Lee Jones, Джоан Чен / Joan Chen, Хенг С. Нгор / Haing S. Ngor, Хьєп Тхі Ле / Hiep Thi Le, Деббі Рейнолдз / Debbie Reynolds, Бассеро Санрек / Bussaro Sanruck, Сьюпек Пайтітем / Supak Pititam, Тхуан К. Нгуен / Thuan K. Nguyen, Вінь Данг / Vinh Dang, Кхієм Тай / Khiem Thai, Лайем Ветлі / Liem Whatley, Майкл Вінь Ле / Michelle Vynh Le, Джеффрі Джонс / Jeffrey Jones, Кетлін Фем / Kathlyne Pham, Шон Стоун /Sean Stone та інші

Сюжет:
"Небо і земля" - кінофільм Олівера Стоуна про війну у В'єтнамі. Фільм заснований на реальних подіях.
Драматична історія в'єтнамської жінки протягом 30 років - трьох різних періодів її біографії. Колись її життя було безтурботним і прекрасним. Але її світ був зруйнований з початком В'єтнамської війни. Доля людини, що опинилася на рідній землі між двох вогнів - Північчю і Півднем. Її катували захисники старого режиму, зґвалтували комуністи... Працюючи в багатому домі в Сайгоні, вона "прижила" дитину від господаря. Лише вийшовши заміж за американського сержанта Стіва Батлера, вона дізналася, що таке любов і повага. Незабаром вона їде з чоловіком до Америки, де її чекають нові випробування...
Олівер Стоун присвятив цей фільм своїй матері.


Рейтинг MPAA: R - особам до 17 років обов'язкова присутність батьків або дорослого опікуна
Вікова категорія: 16+

Тривалість: 02:21:26
Якість: 720p [VietHD]
Відео:
кодек:
розмір кадру: 1280 х 534
бітрейт: 7083 Кбіт/с [crf=16.4]

Аудіо # 1:
мова: українська
переклад: професійний (псевдо?)дубльований | студія Сінемакс
кодек: 5.1
бітрейт: 384 Кбіт/с
примітки автора доріжки п.Lan'а: Доріжку 5.1 створено мною з монофонічної з рутрекера. Це в принципі дубляж, але є місця під час діалогів англійською, з хоч і сильно приглушеним, але все ж чутним оригіналом. Мені це нагадало псевдодубляжі від "Мови", тому я й схильний класифікувати даний дубляж як, можливо, все ж псевдодубляж. Звичайно, мова йде про центральний канал - у фронтах та тилах репліки я замінив на українські.

Аудіо # 2:
мова: англійська
переклад: оригінал
кодек: 5.1
бітрейт: 640 Кбіт/с

Аудіо # 3:
мова: англійська
переклад: коментарі режисера Олівера Стоуна
кодек: 2.0
бітрейт: 96 Кбіт/с

Субтитри # 1-2:
мова: англійська (повні, SDH)
тип: програмні (м'які)
формат: *.srt

Збережено оригінальні розділи, як на Blu-ray.
MediaInfo
Код:
Complete name               : Heaven & Earth (1993) [Ukr,Eng sub.Eng] 720p [Hurtom].mkv
Format                      : Matroska
Format version              : Version 4 / Version 2
File size                   : 8.11 GiB
Duration                    : 2 h 21 min
Overall bit rate            : 8 207 kb/s
Movie name                  : Небо і земля / Heaven & Earth (1993) [Ukr,Eng sub.Eng] 720p [Hurtom-igor911]
Encoded date                : UTC 2016-08-06 10:50:16
Writing application         : mkvmerge v9.3.1 ('Mask Machine') 64bit
Writing library             : libebml v1.3.4 + libmatroska v1.4.5
Cover                       : Yes
Attachments                 : cover.jpg

Video
ID                          : 1
Format                      : AVC
Format/Info                 : Advanced Video Codec
Format profile              : [email protected]
Format settings, CABAC      : Yes
Format settings, ReFrames   : 12 frames
Codec ID                    : V_MPEG4/ISO/AVC
Duration                    : 2 h 21 min
Bit rate                    : 7 083 kb/s
Width                       : 1 280 pixels
Height                      : 534 pixels
Display aspect ratio        : 2.40:1
Frame rate mode             : Constant
Frame rate                  : 23.976 (24000/1001) FPS
Color space                 : YUV
Chroma subsampling          : 4:2:0
Bit depth                   : 8 bits
Scan type                   : Progressive
Bits/(Pixel*Frame)          : 0.432
Stream size                 : 7.00 GiB (86%)
Title                       : Небо і земля / Heaven & Earth (1993) 720p [VietHD]
Writing library             : core 146 r0+2584 6cf85c6 t_mod_Custom [[email protected] ]
Encoding settings           : cabac=1 / ref=12 / deblock=1:-3:-3 / analyse=0x3:0x133 / me=umh / subme=10 / psy=1 / fade_compensate=0.00 / psy_rd=1.10:0.00 / mixed_ref=1 / me_range=24 / chroma_me=1 / trellis=2 / 8x8dct=1 / cqm=0 / deadzone=21,11 / fast_pskip=0 / chroma_qp_offset=-2 / threads=12 / lookahead_threads=3 / sliced_threads=0 / nr=0 / decimate=0 / interlaced=0 / bluray_compat=0 / constrained_intra=0 / fgo=0 / bframes=11 / b_pyramid=2 / b_adapt=2 / b_bias=0 / direct=3 / weightb=1 / open_gop=0 / weightp=2 / keyint=250 / keyint_min=23 / scenecut=40 / intra_refresh=0 / rc_lookahead=60 / rc=crf / mbtree=0 / crf=16.4000 / qcomp=0.60 / qpmin=0:0:0 / qpmax=69:69:69 / qpstep=4 / vbv_maxrate=62500 / vbv_bufsize=78125 / crf_max=0.0 / nal_hrd=none / filler=0 / ip_ratio=1.40 / pb_ratio=1.30 / aq=3:0.70 / aq-sensitivity=10.00 / aq-factor=1.00:1.00:1.00 / aq2=0 / aq3=0
Language                    : English
Default                     : Yes
Forced                      : No
Color range                 : Limited
Matrix coefficients         : BT.709

Audio #1
ID                          : 2
Format                      : AC-3
Format/Info                 : Audio Coding 3
Mode extension              : CM (complete main)
Format settings, Endianness : Big
Codec ID                    : A_AC3
Duration                    : 2 h 21 min
Bit rate mode               : Constant
Bit rate                    : 384 kb/s
Channel(s)                  : 6 channels
Channel positions           : Front: L C R, Side: L R, LFE
Sampling rate               : 48.0 kHz
Frame rate                  : 31.250 FPS (1536 spf)
Compression mode            : Lossy
Delay relative to video     : 26 ms
Stream size                 : 389 MiB (5%)
Title                       : Dub [Cinemax] 5.1 384 kbps [Hurtom-Lan]
Language                    : Ukrainian
Default                     : Yes
Forced                      : No

Audio #2
ID                          : 3
Format                      : AC-3
Format/Info                 : Audio Coding 3
Mode extension              : CM (complete main)
Format settings, Endianness : Big
Codec ID                    : A_AC3
Duration                    : 2 h 21 min
Bit rate mode               : Constant
Bit rate                    : 640 kb/s
Channel(s)                  : 6 channels
Channel positions           : Front: L C R, Side: L R, LFE
Sampling rate               : 48.0 kHz
Frame rate                  : 31.250 FPS (1536 spf)
Compression mode            : Lossy
Stream size                 : 647 MiB (8%)
Title                       : Original, 5.1 640 kbps
Language                    : English
Default                     : No
Forced                      : No

Audio #3
ID                          : 4
Format                      :
Format/Info                 : Advanced Audio Codec
Format profile              : LC
Codec ID                    : A_AAC
Duration                    : 2 h 21 min
Bit rate                    : 96.0 kb/s
Channel(s)                  : 2 channels
Channel positions           : Front: L R
Sampling rate               : 48.0 kHz
Frame rate                  : 46.875 FPS (1024 spf)
Compression mode            : Lossy
Delay relative to video     : 20 ms
Stream size                 : 97.9 MiB (1%)
Title                       : Commentary by director Oliver Stone, 2.0 96 kbps
Language                    : English
Default                     : No
Forced                      : No

Text #1
ID                          : 5
Format                      : UTF-8
Codec ID                    : S_TEXT/UTF8
Codec ID/Info               : UTF-8 Plain Text
Duration                    : 2 h 14 min
Bit rate                    : 48 b/s
Count of elements           : 1530
Stream size                 : 48.2 KiB (0%)
Title                       : Eng full
Language                    : English
Default                     : No
Forced                      : No

Text #2
ID                          : 6
Format                      : UTF-8
Codec ID                    : S_TEXT/UTF8
Codec ID/Info               : UTF-8 Plain Text
Duration                    : 2 h 14 min
Bit rate                    : 51 b/s
Count of elements           : 1614
Stream size                 : 50.6 KiB (0%)
Title                       : Eng SDH
Language                    : English
Default                     : No
Forced                      : No

Menu
00:00:00.000                : en:00:00:00.000
00:11:25.935                : en:00:11:25.935
00:21:44.762                : en:00:21:44.762
00:32:02.087                : en:00:32:02.087
00:43:03.539                : en:00:43:03.539
00:56:12.202                : en:00:56:12.202
01:10:42.196                : en:01:10:42.196
01:21:17.664                : en:01:21:17.664
01:33:36.444                : en:01:33:36.444
01:42:57.588                : en:01:42:57.588
01:55:05.357                : en:01:55:05.357
02:16:03.822                : en:02:16:03.822
Ще скріншоти


Джерела та подяки: &
Подяка за українську доріжку п.Lan

ЗАЛИШАЙТЕСЬ ЯКОМОГА ДОВШЕ НА РОЗДАЧІ!
СКАЧАВ САМ - ДАЙ СКАЧАТИ ІНШИМ


Срібний реліз (на рейтинг впливає 50% завантаженого)
 Трекер:    Зареєстрований   

Завантажити / скачати фільм українською



відео для новачків



 Зареєстрований:   2016-08-06 15:01
 Розмір:   8.11 GB 
 Оцінка фільму:   2.3/10 (Голосів: 14)
   
Інші релізи
   Небо і земля / Heaven & Earth (1993) Ukr/Eng | Sub Eng Lan  2 / 1   2.55 GB   2012-04-08 11:52 
chuguyster 
Новенький


З нами з: 08.05.13
Востаннє: 03.12.16
Повідомлень: 5

2016-08-08 14:24  
http://tsn.ua/svit/oliver-stoun-znimaye-kino-yak-neonacisti-ta-cru-vignali-yanukovicha-z-ukrayini-400465.html

Давайте ще більше фільмів цього говноїда. Як же можна їх не дивитися?!

Anonymous 







2016-08-08 15:53  
chuguyster, то може і Взвод / Чота / Platoon (1986) не треба було викладати/оновлювати. Може прибрати? Це ж теж "гівноїд" зробив?
chuguyster 
Новенький


З нами з: 08.05.13
Востаннє: 03.12.16
Повідомлень: 5

2016-08-11 23:47  
Роби шо хочеш.
Ваш часовий пояс: GMT + 2 Години

Нова тема   Відповісти