Завантажити та скачати торренти українською


Шербурзькі парасольки / Les parapluies de Cherbourg (1964) 720p Fre | sub Ukr

Нові коментарі

Нова тема   Відповісти
Автор Повідомлення
antusyrzhuk 
Свій


З нами з: 09.06.09
Востаннє: 19.11.16
Повідомлень: 145

2016-07-31 19:38  
Шербурзькі парасольки / Les parapluies de Cherbourg (1964) 720p Fre | sub Ukr

Шербурзькі парасольки / Les parapluies de Cherbourg (1964) 720p Fre | sub Ukr


Жанр: драма, музичний, романтичний
Країна: Франція, Західна Німеччина



Кінокомпанія: Parc Film, Madeleine Films, Beta Film
Режисер: Жак Демі (Jacques Demy)
Актори: Катрін Деньов (Catherine Deneuve), Ніно Кастельнуово (Nino Castelnuovo), Анн Вернон (Anne Vernon), Марк Мішель (Marc Michel), Еллен Фарнер (Ellen Farner) та ін.

Сюжет:
Женев'єв палко закохана у Гі, проте коли його забирають до армії, непевність її ситуації штовхає її в обійми іншого. Усе під музику Мішеля Леграна.


Тривалість: 01:30:54
Якість:
Відео:
кодек:
розмір кадру: 1280 х 696
бітрейт: 5370 кб/с

Аудіо:
мова: французька
переклад: оригінал
кодек: 5.1
бітрейт: 1509 кб/с

Субтитри:
мова: українська
тип: програмні (м'які)
формат: *.srt
переклад власний
Скріншоти


MediaInfo
Format : Matroska
Format version : Version 4 / Version 2
File size : 4.37 GiB
Duration : 1h 30mn
Overall bit rate : 6 882 Kbps
Movie name : Les parapluies de Cherbourg
Encoded date : UTC 2016-07-31 17:06:15
Writing application : mkvmerge v6.5.0 ('Isn't she lovely') built on Oct 20 2013 12:50:05
Writing library : libebml v1.3.0 + libmatroska v1.4.1

Video
ID : 1
Format : AVC
Format/Info : Advanced Video Codec
Format profile : [email protected]
Format settings, CABAC : Yes
Format settings, ReFrames : 5 frames
Codec ID : V_MPEG4/ISO/AVC
Duration : 1h 30mn
Bit rate : 5 370 Kbps
Width : 1 280 pixels
Height : 696 pixels
Display aspect ratio : 1.85:1
Frame rate mode : Constant
Frame rate : 24.000 fps
Color space : YUV
Chroma subsampling : 4:2:0
Bit depth : 8 bits
Scan type : Progressive
Bits/(Pixel*Frame) : 0.251
Stream size : 3.32 GiB (76%)
Writing library : core 140 r2377 1ca7bb9
Encoding settings : cabac=1 / ref=5 / deblock=1:0:0 / analyse=0x3:0x133 / me=umh / subme=8 / psy=1 / psy_rd=1.00:0.00 / mixed_ref=1 / me_range=16 / chroma_me=1 / trellis=1 / 8x8dct=1 / cqm=0 / deadzone=21,11 / fast_pskip=0 / chroma_qp_offset=-2 / threads=18 / lookahead_threads=3 / sliced_threads=0 / nr=0 / decimate=1 / interlaced=0 / bluray_compat=0 / constrained_intra=0 / bframes=3 / b_pyramid=2 / b_adapt=2 / b_bias=0 / direct=3 / weightb=1 / open_gop=0 / weightp=2 / keyint=250 / keyint_min=24 / scenecut=40 / intra_refresh=0 / rc_lookahead=50 / rc=2pass / mbtree=1 / bitrate=5370 / ratetol=1.0 / qcomp=0.60 / qpmin=0 / qpmax=69 / qpstep=4 / cplxblur=20.0 / qblur=0.5 / ip_ratio=1.40 / aq=1:1.00
Language : French
Default : Yes
Forced : No

Audio
ID : 2
Format :
Format/Info : Digital Theater Systems
Mode : 16
Format settings, Endianness : Big
Codec ID : A_DTS
Duration : 1h 30mn
Bit rate mode : Constant
Bit rate : 1 509 Kbps
Channel(s) : 5 channels
Channel positions : Front: L C R, Side: L R
Sampling rate : 48.0 KHz
Bit depth : 24 bits
Compression mode : Lossy
Stream size : 981 MiB (22%)
Language : French
Default : Yes
Forced : No

Text
ID : 3
Format : UTF-8
Codec ID : S_TEXT/UTF8
Codec ID/Info : UTF-8 Plain Text
Language : Ukrainian
Default : Yes
Forced : No
Джерело:
Особиста оцінка: 10 - без зайвих вагань рекомендую всім!


Золотий реліз (завантажене не впливає на рейтинг)
 Трекер:    Зареєстрований   

Завантажити / скачати фільм українською



відео для новачків



 Зареєстрований:   2016-07-31 19:38
 Розмір:   4.37 GB 
 Оцінка фільму:   10/10 (Голосів: 5)
   
Аркадій Дзиґа 
Свій


З нами з: 09.10.14
Востаннє: 30.11.16
Повідомлень: 130

2016-08-06 20:40  
Краса і романтика - отут УСЕ бездоганне: сюжет, актори, музика... Настільки глибоко ВСЕ показали. БРАВО!!!!
galari 
Частий відвідувач


З нами з: 04.03.11
Востаннє: 29.11.16
Повідомлень: 33

2016-08-11 20:44  
відкрийте роздачу.
val63 
Свій


З нами з: 03.01.16
Востаннє: 05.12.16
Повідомлень: 120

2016-11-04 16:22  
Да музика Леграна це незрівнянно, а от із сюжетом про кохання не вийшло.
Класична п'єса Островського "Бесприданница" тільки на погляд Французів.
Донька власниці крамниці на межі банкротства, молодий автослюсар і багатий підприємець.
Логічний вибір зробила мати, спочатку гроші а потім кохання.

bullshit detector -wa51 
Новенький


З нами з: 02.10.16
Востаннє: 27.11.16
Повідомлень: 5

2016-11-08 09:05  
@val63УХАХА!!! єєй!! і вся музика за всю історію людства =плагіат з Александрова і Дунаєвського, ти просто з не правильного джерела брав інфу.
на правильному обов'язково має бути "славатундрошовинизму-ЬІ!".
остерігайся підробок!
чого тільки не накопіпастять через гугультранслейт з рашкосайтів!
свого мозку...ніц, школу не відвідував... чи за рашкоперепости башляють?

P.S. за гарними аватарками прапорцями іноді ховаються...
P.S.S. Британці стверджують: з часів Шекспіра в літературі/театрі не сказано нового і слова. Греки (ой, сорі, елліни, звичайно) - Гомера - Софокла... Індуси... А китайці, ті взагалі, знаєте що кажуть

val63 
Свій


З нами з: 03.01.16
Востаннє: 05.12.16
Повідомлень: 120

2016-11-12 21:13  
І що воно @bull бла бла 51 вилізло, з якого льоху?Тикатимеш на своїх руторах, де тобі і місце.
bullshit detector -wa51 
Новенький


З нами з: 02.10.16
Востаннє: 27.11.16
Повідомлень: 5

2016-11-13 14:11  
@val63 УХАХА!!!#2
1. ви намагаєтесь мене образити? але це закид на адресу релізерам (90% вказують як Джерело: російські трекери) і 'toloka.to' як такому (в шаблонах релізів ВШИТІ російські трекери, тобто ні ви ні hurtom навіть не уяаляють що можна купити книжку, блурей, сд, чи скачати з найпопулярніших в світі трекерів типу рарбг чи пайратбей, а не шоркатись по постсовкових-колоніально-локальних трекерах які ніколи не потраплять в100кращих)

2. гопське хамство, тупість, обмеженість, жага 'керувати' хоч як возведені до рівня культу Путіним і Янукоаичем 'налихає' не тільки вас. як бачимо аоно має послідовників і в США, Вененсуелі, Філіпінах... тож не хвилюйтесь так, зашорених рагулів завжди і скрізь багато, в Україні взагалі (відомо чому, еліту, інтелектуалів нищили не один пан-цар-генсек-президент) більшість, ви не перший і не останній

п.с.
а кіно хороше. ще раз подивіться. цього разу в контексті того, що китайці стверджують ніби їм 2млн(!!!) років і всі народи (з їх культурою) від Н.Зеландії, Японії до РФ - їх послідовники хоча в російській імперії було модно вдавати з себе француза, навіть царські укази писали німецькою і французькою. не ходив до школи то гугли, неук

Ваш часовий пояс: GMT + 2 Години

Нова тема   Відповісти