Завантажити та скачати торренти українською


Заздрість / Envy (2004) 1080i Ukr/Eng | sub Eng

Нові коментарі

Нова тема   Відповісти
Останній раз роздавалося urij546724 (2016-12-10)
Автор Повідомлення
urij546724 
Відео Гуртом - фільмокрай
Відео Гуртом - фільмокрай


З нами з: 16.03.10
Востаннє: 10.12.16
Повідомлень: 5222

2016-07-30 15:43  
Заздрість / Envy (2004) 1080i Ukr/Eng | sub Eng



Жанр: комедія
Країна: США



Кіностудія / кінокомпанія: DreamWorks SKG, Columbia Pictures, Castle Rock Entertainment
Режисер: Баррі Левінсон / Barry Levinson
Актори: Бен Стіллер (Ben Stiller), Джек Блек (Jack Black), Рейчел Вейс (Rachel Weisz), Емі Барнс (Amy Poehler), Крістофер Волкен (Christopher Walken), Еріель Гейд (Ariel Gade), Сем Лернер (Sam Lerner), Лілі Джексон (Lily Jackson), Коннор Матеус (Connor Matheus), Ектор Еліас (Hector Elias)...

Сюжет:
Тім і Нік — нерозлучні друзі, сусіди і колеги по роботі. Вони настільки дружні, що у всьому прагнуть бути схожим один на одного — навіть сім'ї і машини у них схожі. Але раптово це ідеальна рівновага порушується: одна з божевільних ідей Ніка починає працювати і приносити своєму творцеві великі гроші. Тіму, який раніше сміявся над навіженими проектами свого друга, тепер залишається тільки заздрити.
Media info
General
ID : 1 (0x1)
Complete name : E:\HD1\Envy (2004) [ukr.K1_eng_AC3_5.1, sub eng] 1080i [Hurtom] by urij546724.ts
Format : MPEG-TS
File size : 10.2 GiB
Duration : 1h 39mn
Overall bit rate mode : Variable
Overall bit rate : 14.7 Mbps
Maximum Overall bit rate : 35.5 Mbps
Law rating : PG-13

Video
ID : 4113 (0x1011)
Menu ID : 1 (0x1)
Format : MPEG Video
Format version : Version 2
Format profile : [email protected]
Format settings, BVOP : Yes
Format settings, Matrix : Default
Format settings, GOP : Variable
Codec ID : 2
Duration : 1h 39mn
Bit rate mode : Variable
Bit rate : 13.2 Mbps
Maximum bit rate : 18.0 Mbps
Width : 1 920 pixels
Height : 1 080 pixels
Display aspect ratio : 16:9
Frame rate : 29.970 fps
Color space : YUV
Chroma subsampling : 4:2:0
Bit depth : 8 bits
Scan type : Interlaced
Scan order : Top Field First
Compression mode : Lossy
Bits/(Pixel*Frame) : 0.213
Time code of first frame : 00:00:00;00
Time code source : Group of pictures header
Stream size : 9.16 GiB (90%)
Language : English

Audio #1
ID : 4352 (0x1100)
Menu ID : 1 (0x1)
Format : AC-3
Format/Info : Audio Coding 3
Mode extension : CM (complete main)
Format settings, Endianness : Big
Codec ID : 129
Duration : 1h 39mn
Bit rate mode : Constant
Bit rate : 384 Kbps
Channel count : 6 channels
Channel positions : Front: L C R, Side: L R, LFE
Sampling rate : 48.0 KHz
Bit depth : 16 bits
Compression mode : Lossy
Stream size : 272 MiB (3%)
Language : Ukrainian

Audio #2
ID : 4353 (0x1101)
Menu ID : 1 (0x1)
Format : AC-3
Format/Info : Audio Coding 3
Mode extension : CM (complete main)
Format settings, Endianness : Big
Codec ID : 129
Duration : 1h 39mn
Bit rate mode : Constant
Bit rate : 384 Kbps
Channel count : 6 channels
Channel positions : Front: L C R, Side: L R, LFE
Sampling rate : 48.0 KHz
Bit depth : 16 bits
Compression mode : Lossy
Stream size : 272 MiB (3%)
Language : English

Text #1
ID : 4113 (0x1011)-CC1
Menu ID : 1 (0x1)
Format : EIA-608
Muxing mode : A/53 / DTVCC Transport
Muxing mode, more info : Muxed in Video #1
Duration : 1h 39mn
Bit rate mode : Constant
Stream size : 0.00 Byte (0%)

Text #2
ID : 4113 (0x1011)-1
Menu ID : 1 (0x1)
Format : EIA-708
Muxing mode : A/53 / DTVCC Transport
Muxing mode, more info : Muxed in Video #1
Duration : 1h 39mn
Bit rate mode : Constant
Stream size : 0.00 Byte (0%)

Text #3
ID : 4113 (0x1011)-2
Menu ID : 1 (0x1)
Format : EIA-708
Muxing mode : A/53 / DTVCC Transport
Muxing mode, more info : Muxed in Video #1
Duration : 1h 39mn
Bit rate mode : Constant
Stream size : 0.00 Byte (0%)

Text #4
ID : 4608 (0x1200)
Menu ID : 1 (0x1)
Format : PGS
Codec ID : 144
Delay relative to video : 2s 169ms
Language : English
Тривалість: 01:38:43
Якість: 1080i
Відео:
кодек:
розмір кадру: 1920 х 1080
бітрейт: ~ 13.2 мб/с
частота кадрів: 23.976 к/с (fps)

Аудіо #1:
мова: українська
переклад: багатоголосий закадровий
кодек: 5.1
бітрейт: 384 кб/с
запис звуку з каналу: К1

Аудіо #2:
мова: англійська
переклад: оригінал
кодек: 5.1
бітрейт: 384 кб/с

Субтитри:
мова: англійська
тип: програмні (м'які)
формат: *.srt

Скріншоти:





Трейлери:

Семпл
Джерело 1_________Джерело 2_________Джерело 3_________Джерело 4_________Джерело 5_________Джерело 6
У випадку, якщо з усіх джерел семпл видалять, прохання повідомити мені у ПРИВАТ


Подяка:

1. Пані SweetN і 1. Пану dvorsky за запис звуку з ТБ.
2. Пану BigMak за українізацію постера.


Джерело:


Срібний реліз (на рейтинг впливає 50% завантаженого)
 Трекер:    Зареєстрований   

Завантажити / скачати фільм українською



відео для новачків



 Зареєстрований:   2016-07-30 15:43
 Розмір:   10.2 GB 
 Оцінка фільму:   1.9/10 (Голосів: 14)
 Прохання не тікати з роздачі одразу після завантаження.
   
Інші релізи
   Заздрість / Envy (2004) Ukr/Eng urij546724  4 / 0   2.15 GB   2016-07-30 16:00 
Ваш часовий пояс: GMT + 2 Години

Нова тема   Відповісти