Завантажити та скачати торренти українською


Мисливець і Снігова королева / The Huntsman Winter's War (2016) AVC Ukr/Eng | Sub Eng

Нові коментарі

Нова тема   Відповісти
Автор Повідомлення
Anonymous 







2016-07-30 03:42  
Мисливець і Снігова королева / The Huntsman Winter's War (2016) AVC Ukr/Eng | Sub Eng

Мисливець і Снігова королева / The Huntsman Winter's War (2016) AVC Ukr/Eng | Sub Eng


Жанр: драма, пригоди, фентезі, дія
Країна: США



Кінокомпанія: Universal Pictures, Roth Films
Режисер: Седрік Ніколя-Троян
Актори: Кріс Гемсворт, Джессіка Честейн, Емілі Блант, Шарліз Терон, Сем Клафлін, Колін Морґан, Нік Фрост, Роб Брайдон, Софі Куксон, Александра Роач

Сюжет:
Продовження пригодницького фільму "Білосніжка і мисливець", засноване на відомих персонажаж із казок братів Ґрімм і Ганса Крістіана Андерсена, зі світовими зірками в головних ролях: Кріс Гемсворт, Емілі Блант, Джессіка Честейн, Шарліз Терон. Задовго до того, як померти від рук Білосніжки, зла королева Равенна правила королівством, як найпрекрасніша на землі. Але у її сестри Фреї народилася дівчинка, чия краса повинна була затьмарити всіх у королівстві. Равенна вбила племінницю і Фрея занурилася в горе. Вона набула смертельну силу - здатність заморозити будь-якого ворога. Таку душевну травму нікому не під силу забути. Фрея помститься сестрі.

Українські трейлери





Рейтинг MPAA: PG-13 - дітям до 13 років перегляд не бажаний
Вікова категорія: 12+

Тривалість: 01:53:57 [Театральна версія]
Якість: AVC
Відео:
кодек:
розмір кадру: 1024 х 428
бітрейт: 2276 Кбіт/с

Аудіо # 1:
мова: українська
переклад: професійний дубльований | студія LeDoyen
кодек: 2.0
бітрейт: 192 Кбіт/с
Інформація про дубляж
Переклад: Сергій Ковальчук
Режисер дубляжу:Ганна Пащенко
Звукорежисер: Михайло Угрин
Координатор дубляжу: Ольга Боєва
Ролі дублювали: Дмитро Гаврилов, Наталя Романько-Кисельова, Катерина Качан, Наталя Ярошенко, Олена Бушевська, Володимир Терещук, Олесь Задніпровський, Ганна Соболєва, Андрій Федінчик та інші

Фільм дубльовано студією LeDoyen на замовлення B&H Film Distribution
Аудіо # 2:
мова: англійська
переклад: оригінал
кодек: AC 5.1
бітрейт: 448 Кбіт/с

Субтитри:
мова: англійська
тип: програмні (м'які)
формат: *.srt

Збережено оригінальні розділи
MediaInfo
Код:
Complete name               : The Huntsman Winter's War (2016) [Ukr,Eng] AVC [Hurtom].mkv
Format                      : Matroska
Format version              : Version 4 / Version 2
File size                   : 2.32 GiB
Duration                    : 1 h 53 min
Overall bit rate            : 2 917 kb/s
Movie name                  : Мисливець і Снігова королева (Білосніжка та мисливець 2) / The Huntsman Winter's War (2016) AVC [Hurtom-igor911]
Encoded date                : UTC 2016-07-30 01:14:09
Writing application         : mkvmerge v9.3.1 ('Mask Machine') 64bit
Writing library             : libebml v1.3.4 + libmatroska v1.4.5
Cover                       : Yes
Attachments                 : cover.jpg

Video
ID                          : 1
Format                      : AVC
Format/Info                 : Advanced Video Codec
Format profile              : [email protected]
Format settings, CABAC      : Yes
Format settings, ReFrames   : 12 frames
Codec ID                    : V_MPEG4/ISO/AVC
Duration                    : 1 h 53 min
Bit rate                    : 2 276 kb/s
Width                       : 1 024 pixels
Height                      : 428 pixels
Display aspect ratio        : 2.40:1
Frame rate mode             : Constant
Frame rate                  : 23.976 FPS
Color space                 : YUV
Chroma subsampling          : 4:2:0
Bit depth                   : 8 bits
Scan type                   : Progressive
Bits/(Pixel*Frame)          : 0.217
Stream size                 : 1.77 GiB (76%)
Title                       : Мисливець і Снігова королева (Білосніжка та мисливець 2) / The Huntsman Winter's War (2016) AVC [R.G.Resident-schultz]
Writing library             : core 146 r2538 121396c
Encoding settings           : cabac=1 / ref=12 / deblock=1:-3:-3 / analyse=0x3:0x113 / me=umh / subme=11 / psy=1 / psy_rd=1.00:0.00 / mixed_ref=1 / me_range=48 / chroma_me=1 / trellis=2 / 8x8dct=1 / cqm=0 / deadzone=21,11 / fast_pskip=0 / chroma_qp_offset=-2 / threads=12 / lookahead_threads=3 / sliced_threads=0 / nr=0 / decimate=0 / interlaced=0 / bluray_compat=0 / constrained_intra=0 / bframes=13 / b_pyramid=2 / b_adapt=2 / b_bias=0 / direct=3 / weightb=1 / open_gop=0 / weightp=2 / keyint=240 / keyint_min=23 / scenecut=40 / intra_refresh=0 / rc_lookahead=40 / rc=2pass / mbtree=1 / bitrate=2276 / ratetol=1.0 / qcomp=0.60 / qpmin=0 / qpmax=69 / qpstep=4 / cplxblur=20.0 / qblur=0.5 / vbv_maxrate=14000 / vbv_bufsize=14000 / nal_hrd=none / filler=0 / ip_ratio=1.40 / aq=1:1.00
Language                    : English
Default                     : Yes
Forced                      : No

Audio #1
ID                          : 2
Format                      : AC-3
Format/Info                 : Audio Coding 3
Mode extension              : CM (complete main)
Format settings, Endianness : Big
Codec ID                    : A_AC3
Duration                    : 1 h 53 min
Bit rate mode               : Constant
Bit rate                    : 192 kb/s
Channel(s)                  : 2 channels
Channel positions           : Front: L R
Sampling rate               : 48.0 kHz
Frame rate                  : 31.250 FPS (1536 spf)
Compression mode            : Lossy
Delay relative to video     : 9 ms
Stream size                 : 156 MiB (7%)
Title                       : Dub [LeDoyen] 2.0 192 kbps [Hurtom-Covenant]
Language                    : Ukrainian
Default                     : Yes
Forced                      : No

Audio #2
ID                          : 3
Format                      : AC-3
Format/Info                 : Audio Coding 3
Mode extension              : CM (complete main)
Format settings, Endianness : Big
Codec ID                    : A_AC3
Duration                    : 1 h 53 min
Bit rate mode               : Constant
Bit rate                    : 448 kb/s
Channel(s)                  : 6 channels
Channel positions           : Front: L C R, Side: L R, LFE
Sampling rate               : 48.0 kHz
Frame rate                  : 31.250 FPS (1536 spf)
Compression mode            : Lossy
Stream size                 : 365 MiB (15%)
Title                       : Original, 5.1 448 kbps
Language                    : English
Default                     : No
Forced                      : No

Text
ID                          : 4
Format                      : UTF-8
Codec ID                    : S_TEXT/UTF8
Codec ID/Info               : UTF-8 Plain Text
Language                    : English
Default                     : No
Forced                      : No

Menu
00:00:00.000                : en:Chapter 01
00:06:28.000                : en:Chapter 02
00:09:28.000                : en:Chapter 03
00:15:05.000                : en:Chapter 04
00:21:35.000                : en:Chapter 05
00:26:54.000                : en:Chapter 06
00:32:36.000                : en:Chapter 07
00:36:53.000                : en:Chapter 08
00:42:16.000                : en:Chapter 09
00:47:29.000                : en:Chapter 10
00:54:39.000                : en:Chapter 11
00:59:28.000                : en:Chapter 12
01:06:20.000                : en:Chapter 13
01:10:22.000                : en:Chapter 14
01:17:47.000                : en:Chapter 15
01:23:19.000                : en:Chapter 16
01:28:08.000                : en:Chapter 17
01:33:42.000                : en:Chapter 18
01:42:22.000                : en:Chapter 19
01:44:28.000                : en:Chapter 20


Джерела та подяки: &
Подяка за українську доріжку п.Covenant

Підтримати купівлю інших фільмів можна тут



ЗАЛИШАЙТЕСЬ ЯКОМОГА ДОВШЕ НА РОЗДАЧІ!
СКАЧАВ САМ - ДАЙ СКАЧАТИ ІНШИМ


 Трекер:    Зареєстрований   

Завантажити / скачати фільм українською



відео для новачків



 Зареєстрований:   2016-07-30 03:42
 Розмір:   2.32 GB 
 Оцінка фільму:   6.6/10 (Голосів: 34)
   
Anonymous 







2016-08-04 20:16  
Ось українські субтитри - моя обробка, таймінг, синхронізація, редагування, за основу було взято саби kibril (opensubtitles)
Ваш часовий пояс: GMT + 2 Години

Нова тема   Відповісти