Завантажити та скачати торренти українською


Зухвалі дівчата / Freche Mädchen (2008) 720p Ukr/Ger

Нові коментарі

Нова тема   Відповісти
Автор Повідомлення
mavitya 
Новенький


З нами з: 24.08.08
Востаннє: 03.12.16
Повідомлень: 13

2016-07-28 19:23  
Зухвалі дівчата / Freche Mädchen (2008) 720p Ukr/Ger

Зухвалі дівчата / Freche Mädchen (2008) 720p Ukr/Ger


Жанр: Комедія
Країна: Німеччина



Кінокомпанія: B.A. Filmproduktion, Collina Film, Constantin Film
Режисер: Уте Віланд
Актори: Емілія Шуле, Селіна Ширін Мюллер, Генрієтта Найджел та інші

Сюжет:
Miла, Ханна і Каті - найкращі подруги. Їм вже 15, і в їхнє життя входить перше кохання. Але воно приносить і перші проблеми, які у цьому віці здаються розміром з Сонце! Міла закохується у свого вчителя, який виявляється маминим бойфрендом, Ханна збирається стати поп зіркою на конкурсі "Суперстар", але її хлопець Бранко категорично проти цього, а у Каті роман на відстані з Брайаном призводить до розчарування у коханні. Але той самий вік, який несе стільки проблем, чудовий тим, що всі ці проблеми вирішуються, і після цього не залишається шрамів на серці, а залишаються лише швидкоплинні спогади!


Тривалість: 01:32:32
Якість: 720p
Відео:
кодек:
розмір кадру: 1280 х 544 (2.35:1)
бітрейт: 2230 кб/с

Аудіо # 1:
мова: українська
переклад: багатоголосий закадровий
кодек: MP3 2.0
бітрейт: 256 кб/с

Аудіо # 2:
мова: німецька
переклад: оригінал
кодек: 2.0
бітрейт: 384 кб/с

Джерело озвучення:
MediaInfo
Код:
Complete name               : Freche Mädchen (2008) 720p [ukr, ger].mkv
Format                      : Matroska
Format version              : Version 4 / Version 2
File size                   : 1.89 GiB
Duration                    : 1 h 32 min
Overall bit rate            : 2 928 kb/s
Movie name                  : Freche.Maedchen.2008.German.DL.720p.HDTV.-muhHD
Encoded date                : UTC 2016-07-27 14:20:48
Writing application         : mkvmerge v9.2.0 ('Photograph') 64bit
Writing library             : libebml v1.3.3 + libmatroska v1.4.4

Video
ID                          : 2
Format                      : AVC
Format/Info                 : Advanced Video Codec
Format profile              : [email protected]
Format settings, CABAC      : Yes
Format settings, ReFrames   : 5 frames
Codec ID                    : V_MPEG4/ISO/AVC
Duration                    : 1 h 32 min
Bit rate                    : 2 286 kb/s
Width                       : 1 280 pixels
Height                      : 544 pixels
Display aspect ratio        : 2.35:1
Frame rate mode             : Constant
Frame rate                  : 25.000 FPS
Color space                 : YUV
Chroma subsampling          : 4:2:0
Bit depth                   : 8 bits
Scan type                   : Progressive
Bits/(Pixel*Frame)          : 0.131
Stream size                 : 1.48 GiB (78%)
Title                       : muhhd-frechemaedchen-hdtv
Writing library             : core 135 r2345 f0c1c53
Encoding settings           : cabac=1 / ref=5 / deblock=1:-3:-3 / analyse=0x3:0x113 / me=umh / subme=7 / psy=1 / psy_rd=1.00:0.00 / mixed_ref=1 / me_range=16 / chroma_me=1 / trellis=1 / 8x8dct=1 / cqm=0 / deadzone=21,11 / fast_pskip=0 / chroma_qp_offset=-2 / threads=9 / lookahead_threads=1 / sliced_threads=0 / nr=0 / decimate=1 / interlaced=0 / bluray_compat=0 / constrained_intra=0 / bframes=3 / b_pyramid=2 / b_adapt=1 / b_bias=0 / direct=1 / weightb=1 / open_gop=0 / weightp=2 / keyint=250 / keyint_min=25 / scenecut=40 / intra_refresh=0 / rc_lookahead=40 / rc=crf / mbtree=1 / crf=20.0 / qcomp=0.60 / qpmin=0 / qpmax=69 / qpstep=4 / ip_ratio=1.40 / aq=1:1.00
Language                    : German
Default                     : Yes
Forced                      : Yes

Audio #1
ID                          : 1
Format                      : MPEG Audio
Format version              : Version 1
Format profile              : Layer 3
Mode                        : Joint stereo
Mode extension              : MS Stereo
Codec ID                    : A_MPEG/L3
Codec ID/Hint               : MP3
Duration                    : 1 h 32 min
Bit rate mode               : Constant
Bit rate                    : 256 kb/s
Channel(s)                  : 2 channels
Sampling rate               : 44.1 kHz
Frame rate                  : 38.281 FPS (1152 spf)
Compression mode            : Lossy
Stream size                 : 169 MiB (9%)
Writing library             : LAME3.99.5
Language                    : Ukrainian
Default                     : Yes
Forced                      : Yes

Audio #2
ID                          : 3
Format                      : AC-3
Format/Info                 : Audio Coding 3
Mode extension              : CM (complete main)
Format settings, Endianness : Big
Codec ID                    : A_AC3
Duration                    : 1 h 32 min
Bit rate mode               : Constant
Bit rate                    : 384 kb/s
Channel(s)                  : 2 channels
Channel positions           : Front: L R
Sampling rate               : 48.0 kHz
Frame rate                  : 31.250 FPS (1536 spf)
Compression mode            : Lossy
Stream size                 : 254 MiB (13%)
Language                    : German
Default                     : No
Forced                      : No


Джерело: &
Особиста оцінка: 8 - мені сподобалося


 Трекер:    Зареєстрований   

Завантажити / скачати фільм українською



відео для новачків



 Зареєстрований:   2016-07-28 19:23
 Розмір:   1.89 GB 
 Оцінка фільму:   -/10 (Голосів: 0)
   
Інші релізи
   Зухвалі дівчата / Freche Mädchen (2008) AngryBirdsUA  2 / 0   1.45 GB   2013-10-20 21:30 
Ваш часовий пояс: GMT + 2 Години

Нова тема   Відповісти