Завантажити та скачати торренти українською


Збірка М2 LIVE (2015) 1080p | Rock

Нові коментарі

Нова тема   Відповісти
Автор Повідомлення
sergiyko.5 
Попереджень: 1
Попереджень: 1 


З нами з: 25.02.16
Востаннє: 04.12.16
Повідомлень: 479

2016-07-26 16:55  
Збірка М2 LIVE (2015) 1080p | Rock


Збірка М2 LIVE (2015) 1080p | Rock

Стиль: Rock
Країна: Україна, М2
Сайти: Офіційний сайт

Виконавці:

O.Torvald
Перелік пісень:
01 Без тебе
02 Віскі і шоколад
03 Все з початку
04 Все це знов
05 Зловживай
06 Крик
07 Мовчи
08 Не вона
09 Сніг
10 Ти є


Антитіла
Перелік пісень:
01 Бери Своє
02 Все Красиво
03 Ів Кусто
04 Їдем Їдем
05 Люди, Як Кораблі
06 Мені Тебе Мало
07 Молоком
08 Над Полюсами
09 Рожеві Діви
10 У книжках


С.К.А.Й.
Перелік пісень:

01 Best друг
02 Дай мені любов
03 Знайду
04 Зникаю
05 Ідеальна
06 Ми разом
07 Поки жива любов
08 Світло
09 Струна
10 Тебе це може вбити
11 Україно
12 Як мене звати
БЕЗ ОБМЕЖЕНЬ
Перелік пісень:

01 Underground
02 Без неї ніяк
03 Доле моя
04 Запам'ятаю
05 Зима
06 Мамині слова
07 Налий мені вина
08 Похрести
09 Розкажи
Друга Ріка
Перелік пісень:

01 Дотик
02 Засинай
03 Космозоо
04 Математика
05 Незнайомка
06 Париж
07 Пробач
08 П'ю з твоїх долонь
09 Три хвилини
10 Фурія
ТАРТАК
Перелік пісень:

01 3Dенс
02 Буча-Чака
03 Дж...ангел
04 Жити
05 Їм було байдуже
06 Просто ніжно так
07 Стільникове кохання
08 Я не знаю
09 Я не один
10 ТАРТАК, ЕРІКА - Ти подумай
11 ТАРТАК, КАТЯ CHILLY - Понад
Тривалість: 00:40:00 (один концерт)
Якість:

Відео: кодек: розмір кадру: 1920 х 1080 бітрейт: 3900кб/с
Аудіо: мова: українська кодек: 2.0 бітрейт: 125 кб/с
Інформація про файл:

General
Unique ID : 187642449012279448587269433802057983244 (0x8D2A9F02F8AF93BBA35062478F72250C)
Complete name : E:\Torrents\VideoMusic\M2 LIVE\O.Torvald.М2 LIVE.12-05-2016..1080i.mkv
Format : Matroska
Format version : Version 4 / Version 2
File size : 1.00 GiB
Duration : 35mn 36s
Overall bit rate : 4 034 Kbps
Encoded date : UTC 2016-06-11 18:10:14
Writing application : mkvmerge v9.0.1 ('Obstacles') 64bit
Writing library : libebml v1.3.3 + libmatroska v1.4.4

Video
ID : 1
Format : AVC
Format/Info : Advanced Video Codec
Format profile : [email protected]
Format settings, CABAC : Yes
Format settings, ReFrames : 3 frames
Codec ID : V_MPEG4/ISO/AVC
Duration : 35mn 36s
Bit rate : 3 903 Kbps
Width : 1 920 pixels
Height : 1 080 pixels
Display aspect ratio : 16:9
Frame rate mode : Constant
Frame rate : 25.000 fps
Color space : YUV
Chroma subsampling : 4:2:0
Bit depth : 8 bits
Scan type : Progressive
Bits/(Pixel*Frame) : 0.075
Stream size : 994 MiB (97%)
Title : O.Torvald М2 LIVE
Language : Ukrainian
Default : Yes
Forced : No
Color range : Limited
Color primaries : BT.709
Transfer characteristics : BT.709
Matrix coefficients : BT.709

Audio
ID : 2
Format :
Format/Info : Advanced Audio Codec
Format profile : LC
Codec ID : A_AAC
Duration : 35mn 36s
Bit rate : 128 Kbps
Channel(s) : 2 channels
Channel positions : Front: L R
Sampling rate : 44.1 KHz
Frame rate : 43.066 fps (1024 spf)
Compression mode : Lossy
Delay relative to video : 200ms
Stream size : 32.7 MiB (3%)
Language : Ukrainian
Default : Yes
Forced : No

Menu
00:00:00.023 : uk:01 Без тебе
00:03:46.023 : uk:02 Віскі і шоколад
00:06:20.784 : uk:03 Все з початку
00:10:08.781 : uk:04 Все це знов
00:14:12.172 : uk:05 Зловживай
00:17:14.286 : uk:06 Крик
00:20:58.336 : uk:07 Мовчи
00:24:27.246 : uk:08 Не вона
00:28:08.253 : uk:09 Сніг
00:31:37.651 : uk:10 Ти є
Скріншоти:


Відео містить підписані розділи відповідно треклиста концерту кожного виконавця.


Реліз: sergiyko


Золотий реліз (завантажене не впливає на рейтинг)
 Трекер:    Зареєстрований   

Завантажити / скачати кліп українською



відео для новачків



 Зареєстрований:   2016-07-26 16:55
 Розмір:   6.99 GB 
 Оцінка кліпу:   8.3/10 (Голосів: 6)
   
sergiyko.5 
Попереджень: 1
Попереджень: 1 


З нами з: 25.02.16
Востаннє: 04.12.16
Повідомлень: 479

2016-09-14 08:58  
Про наступні випуски інформації не має.
Ваш часовий пояс: GMT + 2 Години

Нова тема   Відповісти