Завантажити та скачати торренти українською


Мисливець і Снігова королева / The Huntsman Winter's War (2016) 1080p Ukr/Eng | Sub Ukr/Eng

Нові коментарі

Нова тема   Відповісти
Автор Повідомлення
Anonymous 







2016-07-26 01:38  
Мисливець і Снігова королева / The Huntsman Winter's War (2016) 1080p Ukr/Eng | Sub Ukr/Eng

Мисливець і Снігова королева / The Huntsman Winter's War (2016) 1080p Ukr/Eng | Sub Ukr/Eng


Жанр: драма, пригоди, фентезі, дія
Країна: США



Кінокомпанія: Universal Pictures, Roth Films
Режисер: Седрік Ніколя-Троян
Актори: Кріс Гемсворт, Джессіка Честейн, Емілі Блант, Шарліз Терон, Сем Клафлін, Колін Морґан, Нік Фрост, Роб Брайдон, Софі Куксон, Александра Роач

Сюжет:
Продовження пригодницького фільму "Білосніжка і мисливець", засноване на відомих персонажаж із казок братів Ґрімм і Ганса Крістіана Андерсена, зі світовими зірками в головних ролях: Кріс Гемсворт, Емілі Блант, Джессіка Честейн, Шарліз Терон. Задовго до того, як померти від рук Білосніжки, зла королева Равенна правила королівством, як найпрекрасніша на землі. Але у її сестри Фреї народилася дівчинка, чия краса повинна була затьмарити всіх у королівстві. Равенна вбила племінницю і Фрея занурилася в горе. Вона набула смертельну силу - здатність заморозити будь-якого ворога. Таку душевну травму нікому не під силу забути. Фрея помститься сестрі.

Українські трейлери





Рейтинг MPAA: PG-13 - дітям до 13 років перегляд не бажаний
Вікова категорія: 12+

Тривалість: 01:53:57 [Театральна версія]
Якість: 1080p
Відео:
кодек:
розмір кадру: 1920 х 804
бітрейт: 7188 Кбіт/с [crf=18]
примітка: власний ріп

Аудіо # 1:
мова: українська
переклад: професійний дубльований | студія LeDoyen
кодек: 2.0
бітрейт: 192 Кбіт/с
Інформація про дубляж
Переклад: Сергій Ковальчук
Режисер дубляжу:Ганна Пащенко
Звукорежисер: Михайло Угрин
Координатор дубляжу: Ольга Боєва
Ролі дублювали: Дмитро Гаврилов, Наталя Романько-Кисельова, Катерина Качан, Наталя Ярошенко, Олена Бушевська, Володимир Терещук, Олесь Задніпровський, Ганна Соболєва, Андрій Федінчик та інші

Фільм дубльовано студією LeDoyen на замовлення B&H Film Distribution
Аудіо # 2:
мова: англійська
переклад: оригінал
кодек: 5.1
бітрейт: 1509 Кбіт/с

Аудіо # 3:
мова: англійська
переклад: Descriptive (опис)
кодек: AC 2.0
бітрейт: 192 Кбіт/с

Аудіо # 4:
мова: англійська
переклад: коментарі режисера Седріка Ніколя-Трояна
кодек: AC 2.0
бітрейт: 192 Кбіт/с

Субтитри #1:
мова: українська (повні)
тип: програмні (м'які)
формат: *.srt
примітка: власне редагування, обробка та синхронізація на основі субтитрів від kibril

Субтитри #2:
мова: англійська (повні)
тип: програмні (м'які)
формат: *.srt

Збережено оригінальні розділи, як на Blu-ray.
MediaInfo та log
Код:
Complete name               : The Huntsman Winter's War (2016) [Ukr,Eng sub.Ukr,Eng] 1080p [Hurtom].mkv
Format                      : Matroska
Format version              : Version 4 / Version 2
File size                   : 7.38 GiB
Duration                    : 1 h 53 min
Overall bit rate            : 9 276 kb/s
Movie name                  : Мисливець і Снігова королева (Білосніжка та мисливець 2) / The Huntsman Winter's War (2016) [Ukr,Eng sub.Ukr,Eng] 1080p [Hurtom-igor911]
Encoded date                : UTC 2016-08-04 09:53:28
Writing application         : mkvmerge v9.3.1 ('Mask Machine') 64bit
Writing library             : libebml v1.3.4 + libmatroska v1.4.5
Cover                       : Yes
Attachments                 : cover.jpg

Video
ID                          : 1
Format                      : AVC
Format/Info                 : Advanced Video Codec
Format profile              : [email protected]
Format settings, CABAC      : Yes
Format settings, ReFrames   : 5 frames
Codec ID                    : V_MPEG4/ISO/AVC
Duration                    : 1 h 53 min
Bit rate                    : 7 188 kb/s
Width                       : 1 920 pixels
Height                      : 804 pixels
Display aspect ratio        : 2.40:1
Frame rate mode             : Constant
Frame rate                  : 23.976 (24000/1001) FPS
Color space                 : YUV
Chroma subsampling          : 4:2:0
Bit depth                   : 8 bits
Scan type                   : Progressive
Bits/(Pixel*Frame)          : 0.194
Stream size                 : 5.72 GiB (77%)
Title                       : Мисливець і Снігова королева (Білосніжка та мисливець 2) / The Huntsman Winter's War (2016) 1080p [Hurtom-igor911]
Writing library             : core 148 r2638 7599210
Encoding settings           : cabac=1 / ref=5 / deblock=1:-1:-1 / analyse=0x3:0x133 / me=umh / subme=10 / psy=1 / psy_rd=1.00:0.15 / mixed_ref=1 / me_range=32 / chroma_me=1 / trellis=2 / 8x8dct=1 / cqm=0 / deadzone=21,11 / fast_pskip=0 / chroma_qp_offset=-3 / threads=12 / lookahead_threads=2 / sliced_threads=0 / nr=0 / decimate=1 / interlaced=0 / bluray_compat=0 / constrained_intra=0 / bframes=8 / b_pyramid=2 / b_adapt=2 / b_bias=0 / direct=3 / weightb=1 / open_gop=0 / weightp=2 / keyint=230 / keyint_min=23 / scenecut=40 / intra_refresh=0 / rc_lookahead=60 / rc=crf / mbtree=1 / crf=18.0 / qcomp=0.60 / qpmin=0 / qpmax=69 / qpstep=4 / vbv_maxrate=62500 / vbv_bufsize=78125 / crf_max=0.0 / nal_hrd=none / filler=0 / ip_ratio=1.40 / aq=1:1.00
Language                    : English
Default                     : Yes
Forced                      : No

Audio #1
ID                          : 2
Format                      : AC-3
Format/Info                 : Audio Coding 3
Mode extension              : CM (complete main)
Format settings, Endianness : Big
Codec ID                    : A_AC3
Duration                    : 1 h 53 min
Bit rate mode               : Constant
Bit rate                    : 192 kb/s
Channel(s)                  : 2 channels
Channel positions           : Front: L R
Sampling rate               : 48.0 kHz
Frame rate                  : 31.250 FPS (1536 spf)
Compression mode            : Lossy
Delay relative to video     : 9 ms
Stream size                 : 156 MiB (2%)
Title                       : Dub [LeDoyen] 2.0 192 kbps [Hurtom-Covenant]
Language                    : Ukrainian
Default                     : Yes
Forced                      : No

Audio #2
ID                          : 3
Format                      :
Format/Info                 : Digital Theater Systems
Mode                        : 16
Format settings, Endianness : Big
Codec ID                    : A_DTS
Duration                    : 1 h 53 min
Bit rate mode               : Constant
Bit rate                    : 1 509 kb/s
Channel(s)                  : 6 channels
Channel positions           : Front: L C R, Side: L R, LFE
Sampling rate               : 48.0 kHz
Frame rate                  : 93.750 FPS (512 spf)
Bit depth                   : 24 bits
Compression mode            : Lossy
Stream size                 : 1.20 GiB (16%)
Title                       : Original, 5.1 1509 kbps
Language                    : English
Default                     : No
Forced                      : No

Audio #3
ID                          : 4
Format                      : AC-3
Format/Info                 : Audio Coding 3
Format profile              : Dolby Digital
Mode extension              : CM (complete main)
Format settings, Endianness : Big
Codec ID                    : A_AC3
Duration                    : 1 h 53 min
Bit rate mode               : Constant
Bit rate                    : 192 kb/s
Channel(s)                  : 2 channels
Channel positions           : Front: L R
Sampling rate               : 48.0 kHz
Frame rate                  : 31.250 FPS (1536 spf)
Compression mode            : Lossy
Stream size                 : 157 MiB (2%)
Title                       : Descriptive
Language                    : English
Default                     : No
Forced                      : No

Audio #4
ID                          : 5
Format                      : AC-3
Format/Info                 : Audio Coding 3
Format profile              : Dolby Digital
Mode extension              : CM (complete main)
Format settings, Endianness : Big
Codec ID                    : A_AC3
Duration                    : 1 h 53 min
Bit rate mode               : Constant
Bit rate                    : 192 kb/s
Channel(s)                  : 2 channels
Channel positions           : Front: L R
Sampling rate               : 48.0 kHz
Frame rate                  : 31.250 FPS (1536 spf)
Compression mode            : Lossy
Stream size                 : 157 MiB (2%)
Title                       : Commentary by director Cedric Nicolas-Troyan
Language                    : English
Default                     : No
Forced                      : No

Text #1
ID                          : 6
Format                      : UTF-8
Codec ID                    : S_TEXT/UTF8
Codec ID/Info               : UTF-8 Plain Text
Duration                    : 1 h 44 min
Bit rate                    : 54 b/s
Count of elements           : 1009
Stream size                 : 41.7 KiB (0%)
Title                       : Ukr Full [Hurtom-igor911], kibril
Language                    : Ukrainian
Default                     : No
Forced                      : No

Text #2
ID                          : 7
Format                      : UTF-8
Codec ID                    : S_TEXT/UTF8
Codec ID/Info               : UTF-8 Plain Text
Duration                    : 1 h 43 min
Bit rate                    : 36 b/s
Count of elements           : 1039
Stream size                 : 27.5 KiB (0%)
Title                       : Eng full
Language                    : English
Default                     : No
Forced                      : No

Menu
00:00:00.000                : en:
00:06:26.427                : en:
00:09:26.857                : en:
00:15:03.193                : en:
00:21:33.500                : en:
00:26:52.235                : en:
00:32:34.744                : en:
00:36:51.167                : en:
00:42:17.952                : en:
00:47:27.261                : en:
00:54:37.816                : en:
00:59:26.229                : en:
01:06:18.974                : en:
01:10:21.508                : en:
01:17:45.118                : en:
01:23:17.492                : en:
01:28:06.864                : en:
01:33:28.811                : en:
01:42:20.759                : en:
01:44:26.426                : en:


Код:
raw [info]: 1920x804p 1:1 @ 24000/1001 fps (cfr)
[info]: using SAR=1/1
[info]: using cpu capabilities: MMX2 SSE2Fast SSSE3 SSE4.2 AVX
[info]: profile High, level 4.1
[info]: frame I:1349  Avg QP:14.97  size:239098
[info]: frame P:34173 Avg QP:18.18  size: 71954
[info]: frame B:128415 Avg QP:20.58  size: 26179
[info]: consecutive B-frames:  2.0%  1.7%  8.2% 12.8% 18.7% 48.7%  5.1%  2.0%  0.8%
[info]: mb I  I16..4: 19.0% 67.3% 13.7%
[info]: mb P  I16..4:  2.4% 18.1%  1.8%  P16..4: 41.6% 17.3% 11.6%  0.6%  0.3%    skip: 6.4%
[info]: mb B  I16..4:  0.5%  2.3%  0.3%  B16..8: 39.3%  9.6%  2.0%  direct:10.4%  skip:35.8%  L0:44.7% L1:43.9% BI:11.4%
[info]: 8x8 transform intra:78.0% inter:57.9%
[info]: direct mvs  spatial:100.0% temporal:0.0%
[info]: coded y,uvDC,uvAC intra: 87.2% 79.9% 49.7% inter: 32.6% 24.6% 2.9%
[info]: i16 v,h,dc,p: 20% 11% 32% 37%
[info]: i8 v,h,dc,ddl,ddr,vr,hd,vl,hu: 13%  8% 11%  8% 11% 12% 11% 12% 13%
[info]: i4 v,h,dc,ddl,ddr,vr,hd,vl,hu: 27%  7%  7%  7% 11% 11% 10%  9% 10%
[info]: i8c dc,h,v,p: 46% 23% 19% 13%
[info]: Weighted P-Frames: Y:6.0% UV:4.3%
[info]: ref P L0: 46.6% 11.4% 23.7%  9.1%  8.1%  1.1%  0.0%
[info]: ref B L0: 76.3% 16.9%  5.4%  1.4%
[info]: ref B L1: 92.0%  8.0%
[info]: kb/s:7187.55
encoded 163937 frames, 7.51 fps, 7187.55 kb/s
Constant Quality Mode: Quality 18 computed...
Video Bitrate Obtained (approximate): 7187 kbit/s
Ще трохи скріншотів


Джерела та подяки:
Подяка за українську доріжку п.Covenant

Підтримати купівлю інших фільмів можна тут



ЗАЛИШАЙТЕСЬ ЯКОМОГА ДОВШЕ НА РОЗДАЧІ!
СКАЧАВ САМ - ДАЙ СКАЧАТИ ІНШИМ


 Трекер:    Зареєстрований   

Завантажити / скачати фільм українською



відео для новачків



 Зареєстрований:   2016-08-04 13:41
 Розмір:   7.38 GB 
 Оцінка фільму:   7.1/10 (Голосів: 41)
   
bot 
робот


З нами з: 30.09.07
Востаннє: 26.05.05
Повідомлень: 16026

2016-07-26 16:42  
Тему перенесено з Анонси релізів до форуму Фільми в HD


igor911

Anonymous 







2016-07-26 16:55  
Мій 600й реліз.
buzik13 
Новенький


З нами з: 22.12.10
Востаннє: 18.11.16
Повідомлень: 10

2016-07-26 19:34  
igor911
Вітаю! Бажаю всього найкращого, нехай усі blu ray виходять з українською звуковою доріжкою, а ціни на харди при бажанні танули як сніг на сонці, і нехай ця сотня буде далеко не останньою!

Anonymous 







2016-07-26 19:35  
buzik13, дякую Wide grin
Spawn 182 
Свій


З нами з: 27.07.09
Востаннє: 06.12.16
Повідомлень: 57

2016-07-26 21:08  
Вітаю!!!! Побільше б таких класних релізерів, які роблять важливу справу!!!! Популяризують і проштовхують українське!!!
Anonymous 







2016-07-30 03:45  
Реліз скоро буде оновлено до 'а, працюю над укр.субтитрами.
Anonymous 







2016-08-04 13:44  
Реліз оновлено!
Замінено відеоряд на якісніший та додано українські субтитри.

MrRyanCooper 
VIP


З нами з: 23.08.12
Востаннє: 06.12.16
Повідомлень: 280

2016-08-14 20:39  
А це начебто передісторія того, що вийшло колись? Принаймні десь на англ обкладинці таке читав.
Anonymous 







2016-08-14 22:50  
MrRyanCooper
igor911 написано:
Знайти всі релізи всіх частин цього фільму на Гуртом

http://toloka.to/tracker.php?nm=Huntsman

Ваш часовий пояс: GMT + 2 Години

Нова тема   Відповісти