Завантажити та скачати торренти українською


Мисливець і Снігова королева / The Huntsman Winter's War (2016) 720p Ukr/Eng | Sub Ukr/Eng

Нові коментарі

Нова тема   Відповісти
Автор Повідомлення
Anonymous 







2016-07-26 01:36  
Мисливець і Снігова королева / The Huntsman Winter's War (2016) 720p Ukr/Eng | Sub Ukr/Eng

Мисливець і Снігова королева / The Huntsman Winter's War (2016) 720p Ukr/Eng | Sub Ukr/Eng


Жанр: драма, пригоди, фентезі, дія
Країна: США



Кінокомпанія: Universal Pictures, Roth Films
Режисер: Седрік Ніколя-Троян
Актори: Кріс Гемсворт, Джессіка Честейн, Емілі Блант, Шарліз Терон, Сем Клафлін, Колін Морґан, Нік Фрост, Роб Брайдон, Софі Куксон, Александра Роач

Сюжет:
Продовження пригодницького фільму "Білосніжка і мисливець", засноване на відомих персонажаж із казок братів Ґрімм і Ганса Крістіана Андерсена, зі світовими зірками в головних ролях: Кріс Гемсворт, Емілі Блант, Джессіка Честейн, Шарліз Терон. Задовго до того, як померти від рук Білосніжки, зла королева Равенна правила королівством, як найпрекрасніша на землі. Але у її сестри Фреї народилася дівчинка, чия краса повинна була затьмарити всіх у королівстві. Равенна вбила племінницю і Фрея занурилася в горе. Вона набула смертельну силу - здатність заморозити будь-якого ворога. Таку душевну травму нікому не під силу забути. Фрея помститься сестрі.

Українські трейлери





Рейтинг MPAA: PG-13 - дітям до 13 років перегляд не бажаний
Вікова категорія: 12+

Тривалість: 01:53:57 [Театральна версія]
Якість: 720p
Відео:
кодек:
розмір кадру: 1280 х 536
бітрейт: 3709 Кбіт/с [crf=17]
примітка: власний ріп

Аудіо # 1:
мова: українська
переклад: професійний дубльований | студія LeDoyen
кодек: 2.0
бітрейт: 192 Кбіт/с
Інформація про дубляж
Переклад: Сергій Ковальчук
Режисер дубляжу:Ганна Пащенко
Звукорежисер: Михайло Угрин
Координатор дубляжу: Ольга Боєва
Ролі дублювали: Дмитро Гаврилов, Наталя Романько-Кисельова, Катерина Качан, Наталя Ярошенко, Олена Бушевська, Володимир Терещук, Олесь Задніпровський, Ганна Соболєва, Андрій Федінчик та інші

Фільм дубльовано студією LeDoyen на замовлення B&H Film Distribution
Аудіо # 2:
мова: англійська
переклад: оригінал
кодек: AC 5.1
бітрейт: 640 Кбіт/с

Субтитри #1:
мова: українська (повні)
тип: програмні (м'які)
формат: *.srt
примітка: власне редагування, обробка та синхронізація на основі субтитрів від kibril

Субтитри #2:
мова: англійська (повні)
тип: програмні (м'які)
формат: *.srt

Збережено оригінальні розділи, як на Blu-ray.
MediaInfo та x264log
Код:
Complete name               : The Huntsman Winter's War (2016) [Ukr,Eng sub.Ukr,Eng] 720p [Hurtom].mkv
Format                      : Matroska
Format version              : Version 4 / Version 2
File size                   : 3.62 GiB
Duration                    : 1 h 53 min
Overall bit rate            : 4 543 kb/s
Movie name                  : Мисливець і Снігова королева (Білосніжка та мисливець 2) / The Huntsman Winter's War (2016) [Ukr,Eng sub.Ukr,Eng] 720p [Hurtom-igor911]
Encoded date                : UTC 2016-08-04 09:30:40
Writing application         : mkvmerge v9.3.1 ('Mask Machine') 64bit
Writing library             : libebml v1.3.4 + libmatroska v1.4.5
Cover                       : Yes
Attachments                 : cover.jpg

Video
ID                          : 1
Format                      : AVC
Format/Info                 : Advanced Video Codec
Format profile              : [email protected]
Format settings, CABAC      : Yes
Format settings, ReFrames   : 12 frames
Codec ID                    : V_MPEG4/ISO/AVC
Duration                    : 1 h 53 min
Bit rate                    : 3 709 kb/s
Width                       : 1 280 pixels
Height                      : 536 pixels
Display aspect ratio        : 2.40:1
Frame rate mode             : Constant
Frame rate                  : 23.976 (24000/1001) FPS
Color space                 : YUV
Chroma subsampling          : 4:2:0
Bit depth                   : 8 bits
Scan type                   : Progressive
Bits/(Pixel*Frame)          : 0.225
Stream size                 : 2.95 GiB (82%)
Title                       : Мисливець і Снігова королева (Білосніжка та мисливець 2) / The Huntsman Winter's War (2016) 720p [Hurtom-igor911]
Writing library             : core 148 r2638 7599210
Encoding settings           : cabac=1 / ref=12 / deblock=1:-1:-1 / analyse=0x3:0x133 / me=umh / subme=11 / psy=1 / psy_rd=1.00:0.15 / mixed_ref=1 / me_range=48 / chroma_me=1 / trellis=2 / 8x8dct=1 / cqm=0 / deadzone=21,11 / fast_pskip=0 / chroma_qp_offset=-3 / threads=12 / lookahead_threads=2 / sliced_threads=0 / nr=0 / decimate=1 / interlaced=0 / bluray_compat=0 / constrained_intra=0 / bframes=8 / b_pyramid=2 / b_adapt=2 / b_bias=0 / direct=3 / weightb=1 / open_gop=0 / weightp=2 / keyint=230 / keyint_min=23 / scenecut=40 / intra_refresh=0 / rc_lookahead=60 / rc=crf / mbtree=1 / crf=17.0 / qcomp=0.60 / qpmin=0 / qpmax=69 / qpstep=4 / vbv_maxrate=62500 / vbv_bufsize=78125 / crf_max=0.0 / nal_hrd=none / filler=0 / ip_ratio=1.40 / aq=1:1.00
Language                    : English
Default                     : Yes
Forced                      : No

Audio #1
ID                          : 2
Format                      : AC-3
Format/Info                 : Audio Coding 3
Mode extension              : CM (complete main)
Format settings, Endianness : Big
Codec ID                    : A_AC3
Duration                    : 1 h 53 min
Bit rate mode               : Constant
Bit rate                    : 192 kb/s
Channel(s)                  : 2 channels
Channel positions           : Front: L R
Sampling rate               : 48.0 kHz
Frame rate                  : 31.250 FPS (1536 spf)
Compression mode            : Lossy
Delay relative to video     : 9 ms
Stream size                 : 156 MiB (4%)
Title                       : Dub [LeDoyen] 2.0 192 kbps [Hurtom-Covenant]
Language                    : Ukrainian
Default                     : Yes
Forced                      : No

Audio #2
ID                          : 3
Format                      : AC-3
Format/Info                 : Audio Coding 3
Mode extension              : CM (complete main)
Format settings, Endianness : Big
Codec ID                    : A_AC3
Duration                    : 1 h 53 min
Bit rate mode               : Constant
Bit rate                    : 640 kb/s
Channel(s)                  : 6 channels
Channel positions           : Front: L C R, Side: L R, LFE
Sampling rate               : 48.0 kHz
Frame rate                  : 31.250 FPS (1536 spf)
Compression mode            : Lossy
Stream size                 : 522 MiB (14%)
Title                       : Original, 5.1 640 kbps
Language                    : English
Default                     : No
Forced                      : No

Text #1
ID                          : 4
Format                      : UTF-8
Codec ID                    : S_TEXT/UTF8
Codec ID/Info               : UTF-8 Plain Text
Duration                    : 1 h 44 min
Bit rate                    : 54 b/s
Count of elements           : 1009
Stream size                 : 41.7 KiB (0%)
Title                       : Ukr Full [Hurtom-igor911], kibril
Language                    : Ukrainian
Default                     : No
Forced                      : No

Text #2
ID                          : 5
Format                      : UTF-8
Codec ID                    : S_TEXT/UTF8
Codec ID/Info               : UTF-8 Plain Text
Duration                    : 1 h 43 min
Bit rate                    : 36 b/s
Count of elements           : 1039
Stream size                 : 27.5 KiB (0%)
Title                       : Enf Full
Language                    : English
Default                     : No
Forced                      : No

Menu
00:00:00.000                : en:
00:06:26.427                : en:
00:09:26.857                : en:
00:15:03.193                : en:
00:21:33.500                : en:
00:26:52.235                : en:
00:32:34.744                : en:
00:36:51.167                : en:
00:42:17.952                : en:
00:47:27.261                : en:
00:54:37.816                : en:
00:59:26.229                : en:
01:06:18.974                : en:
01:10:21.508                : en:
01:17:45.118                : en:
01:23:17.492                : en:
01:28:06.864                : en:
01:33:28.811                : en:
01:42:20.759                : en:
01:44:26.426                : en:


Код:
raw [info]: 1280x536p 1:1 @ 24000/1001 fps (cfr)
[info]: using SAR=1/1
[info]: using cpu capabilities: MMX2 SSE2Fast SSSE3 SSE4.2 AVX
[info]: profile High, level 4.1
[info]: frame I:1486  Avg QP:13.67  size:151052
[info]: frame P:35035 Avg QP:17.34  size: 40821
[info]: frame B:127416 Avg QP:20.28  size: 11892
[info]: consecutive B-frames:  2.1%  2.0%  6.6% 22.1% 17.4% 41.5%  5.0%  1.8%  1.6%
[info]: mb I  I16..4: 14.2% 59.5% 26.2%
[info]: mb P  I16..4:  0.6% 10.7%  1.8%  P16..4: 29.2% 33.0% 13.9%  4.0%  0.9%    skip: 5.9%
[info]: mb B  I16..4:  0.0%  1.4%  0.2%  B16..8: 35.4% 19.3%  2.9%  direct: 6.1%  skip:34.7%  L0:43.4% L1:43.8% BI:12.7%
[info]: 8x8 transform intra:78.9% inter:54.0%
[info]: direct mvs  spatial:99.9% temporal:0.1%
[info]: coded y,uvDC,uvAC intra: 93.1% 82.6% 57.9% inter: 28.6% 17.2% 3.4%
[info]: i16 v,h,dc,p: 22%  7% 20% 51%
[info]: i8 v,h,dc,ddl,ddr,vr,hd,vl,hu: 12%  7%  7%  9% 14% 13% 13% 12% 13%
[info]: i4 v,h,dc,ddl,ddr,vr,hd,vl,hu: 13%  7%  6%  8% 14% 14% 13% 11% 13%
[info]: i8c dc,h,v,p: 43% 23% 18% 17%
[info]: Weighted P-Frames: Y:7.8% UV:5.4%
[info]: ref P L0: 43.5% 11.3% 18.0%  6.6%  5.4%  4.4%  3.3%  1.7%  1.7%  1.4%  1.3%  1.1%  0.2%  0.0%
[info]: ref B L0: 73.7% 11.6%  5.2%  2.8%  1.8%  1.7%  1.1%  0.8%  0.7%  0.4%  0.2%
[info]: ref B L1: 92.7%  7.3%
[info]: kb/s:3708.75
encoded 163937 frames, 8.16 fps, 3708.74 kb/s
Constant Quality Mode: Quality 17 computed...
Video Bitrate Obtained (approximate): 3708 kbit/s
Ще скріншоти


Джерела та подяки:
Подяка за українську доріжку п.Covenant

Підтримати купівлю інших фільмів можна тут



ЗАЛИШАЙТЕСЬ ЯКОМОГА ДОВШЕ НА РОЗДАЧІ!
СКАЧАВ САМ - ДАЙ СКАЧАТИ ІНШИМ


 Трекер:    Зареєстрований   

Завантажити / скачати фільм українською



відео для новачків



 Зареєстрований:   2016-08-04 13:19
 Розмір:   3.62 GB 
 Оцінка фільму:   5.8/10 (Голосів: 27)
   
bot 
робот


З нами з: 30.09.07
Востаннє: 26.05.05
Повідомлень: 15975

2016-07-26 15:54  
Тему перенесено з Анонси релізів до форуму Фільми в HD


igor911

Anonymous 







2016-07-26 17:06  
На opensubtitles.org є українські субтитри, але мені так і не вдалося їх синхронізувати з цим релізом - як вирівнюю початок - розсинхрон вже буквально через десять хв., перепробував конвертацію всіх можливих комбінацій fps, всерівно не лягають як треба. Можливо, вони до якоїсь іншої за тривалістю/наповненням версії фільму.
casper101 
Свій


З нами з: 03.12.09
Востаннє: 03.12.16
Повідомлень: 89

2016-07-28 22:49  
файний переклад.
Anonymous 







2016-08-04 13:23  
Реліз оновлено!
Замінено відеоряд на якісніший та додано українські субтитри.

Ваш часовий пояс: GMT + 2 Години

Нова тема   Відповісти