Завантажити та скачати торренти українською


Дияволиці / Diabolique / Les diaboliques (1955) 720p Ukr/Fra | sub Eng

Нові коментарі

Нова тема   Відповісти
Автор Повідомлення
Omikron 
VIP


З нами з: 03.01.12
Востаннє: 09.12.16
Повідомлень: 298

2016-07-22 23:14  
Дияволиці / Diabolique / Les diaboliques (1955) 720p Ukr/Fra | sub Eng



Жанр: драма, жахи, трилер
Країна: Франція



Кіностудія: Filmsonor, Vera Films
Режисер: Анрі-Жорж, Клузо
Актори: Симона Синьйоре, Вера Клузо, Поль Меуріс, Шарль Ванель, Жан Брошар, Мішель Серро та ін.

Сюжет:
Дружина жорстокого директора школи разом з його коханкою готують змову щоб убити його, але після скоєння вбивства його тіло зникає і дивні події починають переслідувати обох жінок.


Перекладено та озвучено студією Омікрон на замовлення HURTOM.COM


Тривалість: 01:57:11
Якість:
Відео:
кодек:
розмір кадру: 960x720
бітрейт: 2746 кб/с
CRF: 19

Аудіо # 1:
мова: українська | Студія Омікрон
переклад: багатоголосий закадровий
кодек: 1.0
бітрейт: 224 кб/с

Аудіо # 2:
мова: французька
переклад: оригінал
кодек: 1.0
бітрейт: 224 кб/с

Субтитри:
мова: англійська
тип: програмні (м'які)
формат: *.srt

Скріншоти












Звіт MediaInfo

General
Unique ID : 215523555371361785215668913455308611671 (0xA22453AFC9896B62B93FF3F297C22057)
Complete name : Les Diaboliques (1955) [ukr,fra] 720p [Hurtom].mkv
Format : Matroska
Format version : Version 4 / Version 2
File size : 2.62 GiB
Duration : 1h 57mn
Overall bit rate : 3 196 Kbps
Movie name : Дияволиці / Diabolique / Les diaboliques (1955) [Hurtom]
Encoded date : UTC 2016-07-21 22:17:30
Writing application : mkvmerge v9.2.0 ('Photograph') 64bit
Writing library : libebml v1.3.3 + libmatroska v1.4.4
Attachments : особлива подяка.txt

Video
ID : 1
Format : AVC
Format/Info : Advanced Video Codec
Format profile : [email protected]
Format settings, CABAC : Yes
Format settings, ReFrames : 8 frames
Codec ID : V_MPEG4/ISO/AVC
Duration : 1h 57mn
Bit rate : 2 746 Kbps
Width : 960 pixels
Height : 720 pixels
Display aspect ratio : 4:3
Frame rate mode : Constant
Frame rate : 23.976 (24000/1001) fps
Color space : YUV
Chroma subsampling : 4:2:0
Bit depth : 8 bits
Scan type : Progressive
Bits/(Pixel*Frame) : 0.166
Stream size : 2.25 GiB (86%)
Writing library : core 148 r2638 7599210
Encoding settings : cabac=1 / ref=8 / deblock=1:-1:-1 / analyse=0x3:0x133 / me=umh / subme=10 / psy=1 / psy_rd=1.00:0.15 / mixed_ref=1 / me_range=32 / chroma_me=1 / trellis=2 / 8x8dct=1 / cqm=0 / deadzone=21,11 / fast_pskip=0 / chroma_qp_offset=-3 / threads=12 / lookahead_threads=1 / sliced_threads=0 / nr=0 / decimate=1 / interlaced=0 / bluray_compat=0 / constrained_intra=0 / bframes=3 / b_pyramid=2 / b_adapt=2 / b_bias=0 / direct=3 / weightb=1 / open_gop=0 / weightp=2 / keyint=240 / keyint_min=23 / scenecut=40 / intra_refresh=0 / rc_lookahead=60 / rc=crf / mbtree=1 / crf=19.0 / qcomp=0.60 / qpmin=0 / qpmax=69 / qpstep=4 / vbv_maxrate=31250 / vbv_bufsize=31250 / crf_max=0.0 / nal_hrd=none / filler=0 / ip_ratio=1.40 / aq=1:1.00
Default : Yes
Forced : No

Audio #1
ID : 2
Format : AC-3
Format/Info : Audio Coding 3
Mode extension : CM (complete main)
Format settings, Endianness : Big
Codec ID : A_AC3
Duration : 1h 57mn
Bit rate mode : Constant
Bit rate : 224 Kbps
Channel(s) : 1 channel
Channel positions : Front: C
Sampling rate : 48.0 KHz
Frame rate : 31.250 fps (1536 spf)
Compression mode : Lossy
Stream size : 188 MiB (7%)
Title : Озвучено студією Омікрон на замовлення hurtom.com
Language : Ukrainian
Default : Yes
Forced : No

Audio #2
ID : 3
Format : AC-3
Format/Info : Audio Coding 3
Mode extension : CM (complete main)
Format settings, Endianness : Big
Codec ID : A_AC3
Duration : 1h 57mn
Bit rate mode : Constant
Bit rate : 224 Kbps
Channel(s) : 1 channel
Channel positions : Front: C
Sampling rate : 48.0 KHz
Frame rate : 31.250 fps (1536 spf)
Compression mode : Lossy
Stream size : 188 MiB (7%)
Title : Original
Language : French
Default : No
Forced : No

Text
ID : 4
Format : UTF-8
Codec ID : S_TEXT/UTF8
Codec ID/Info : UTF-8 Plain Text
Duration : 1h 56mn
Bit rate : 53 bps
Count of elements : 1432
Stream size : 45.9 KiB (0%)
Title : BD translation
Language : English
Default : Yes
Forced : No
Про озвучення

Українське озвучення створено в рамках проекту "Хочеш кіно українською? Замовляй!"



Дякуємо користувачам, що фінансово допомогли проекту:
aikikolo, ALFROMEDA, Ama1eur&OlenaKyiv, Andr1511, andriy063, asya_wolf, attila the honey bunny, chuvak_9404, ContraBass, DaemanUhr, Demetrios, derill, dimon4eg, don pedro, DreyD, endro, Fizia, forest17, Golota, Gxost, Inderike, ivan vyrvyvuho, k_bx, [email protected], killrocker, Klen-Yavir, knedlyk, Kocyk, korzhuk, Kristel, kupich andrew, leonidovod, LifeGuard_89, Lilyvn, Luka, lutsko_k, makstur, Marian1909, MashynovyKriSS, MasterYura, Mikola_sat, Mitya_GUNNER, mnd2, molostov, morg, Mr. Putin, mrekrutyak, Mustafa, NemoInFire, Neytreenor, oleksandr, olekss22, oleshko77, olko.for.spam, Olkos, Opryshok76 , ortt11, OviniX, panama58, papaika, parabola76, patriot4829, pesko, Pit33, Pivoman, romanb, romm77, roshko.la, Ryoga, sashaxs, Sehrg-Gut, sguiklio, Shangri-la, shtein, sigaUA, sigito, sirHermit, skuline, slava_4, somnambula, spring_girl, StaYLeR_ok, steeple, SVARGA7, Theli, timoha, TSpell, turba, vanami, vdima82, veto, Viktor, volesj, vvmaestro, vvvalia, Wivern, xfsthe, yesterday, yuretsua, zbtornado, zendash, анінім, Еврик, Євсей Гомоляка, Леля22, Рокнрольщик, Форкуш, Шалені бобри, Юрій Апостол, Янко Гортало
Також дякуємо користувачам, що надали фінансову допомогу, але побажали бути анонімними.

Детальніше про проект.


Джерело:

Фільми, які було озвучено на замовлення Гуртом (допоможіть озвучити наступні):
М: Місто шукає вбивцю (1931)
Чарівник країни Оз (1939)
Великий диктатор (1940)
Громадянин Кейн (1941)
Подвійна страховка (1944)
Це дивовижне життя (1946)
Викрадачі велосипедів (1948)
Рашьомон (1950)
Сім самураїв (1954)
У випадку вбивства телефонуйте "М" (1954)
Леді та Блудько (1955) нове
12 розгніваних чоловіків (1957)
Сьома печатка (1957)
На північ через північний захід (1959)
Більярдист (1961)
Охоронець (1961)
Вбити пересмішника (1962)
Людина, що вбила Ліберті Веленса (1962)
Вісім з половиною (1963)
Велика прогулянка (1966)
Як Ґрінч украв Різдво! (1966)
Випускник (1967)
Самурай (1967)
Одного разу на Дикому Заході (1968)
Коти-аристократи (1970)
Механічний апельсин (1971)
Навколо світу за 80 днів (1972) нове
Китайський квартал (1974)
Пролітаючи над гніздом зозулі (1975)
Телемережа (1976)
Енні Голл (1977) нове
Мисливець на оленів (1978)
Буття Брайана за Монті Пайтоном (1979)
Коли я буду там (1979)
Мангеттен (1979)
Людина-слон (1980)
Приборкання норовливого (1980)
Скажений бик (1980)
Підводний човен (1981)
Ґанді (1982)
Король комедії (1982) нове
Різдвяна історія (1983)
Амадей (1984)
Барва пурпурова (1985)
Бразилія (1985)
Ран (1985)
Великий мишачий детектив (1986)
Небесний замок Лапута (1986)
Акіра (1988)
Мій сусід Тоторо (1988)
Останній з могікан (1992)
Скажені пси (1992)
Шосе в нікуди (1997) нове
Американська історія Ікс (1998)
Страх і огида в Лас-Вегасі (1998)
Шоу Трумена (1998)
Догма (1999)
Магнолія (1999) нове
Сука любов (2000) нове
Нічия земля (2001)
Родина Тененбаумів (2001)
Тріо з Бельвіля (2003)
Труднощі перекладу (2003)
Бункер (2004)
Готель Руанда (2004)
Тренер Картер (2005)
Льодовиковий період 2 (2006)
Лабіринт Фавна (2006)
Людина з планети Земля (2007)
В тіні місяця (2007)
Голод (2008)
Іп Мен (2008)
Викрадена (2008)
Впусти мене (2008)
Хвиля (2008)
Містер Ніхто (2009)
13 вбивць (2010)
Бетмен: Під червоною маскою (2010)
Іп Мен 2 (2010)
Котяче життя (2010)
Позичайка Аріетті (2010)
Чорний Лебідь (2010)
Місто (2010)
Сенна (2010)
50/50 (2011)
Адвокат на лінкольні (2011)
Дерево життя (2011)
Опівночі в Парижі (2011)
Воїн (2011)
Драйв (2011)
Життя за один день (2011)
Укриття (2011)
Хижа в лісі (2011)
Рейд: Спокута (2011)
Акт вбивства (2012)
Арго (2012)
Безпека не гарантується (2012)
Викрадена 2 (2012)
Збірка промінців надії (2012)
Ернест і Селестіна (2012)
Звірі дикого Півдня (2012)
Лінкольн (2012)
Любов (2012)
Надійні хлопці (2012)
Паркер (2012)
Переваги скромників (2012)
Пліч-о-пліч (2012)
Полювання (2012)
Розірване коло (2012)
Суддя Дредд (2012)
Тридцять хвилин по півночі (2012)
Що б ви зробили (2012)
Американська афера (2013)
Виклик (2013)
Вона (2013)
Ворог (2013)
Всередині Л'ювіна Девіса (2013)
Джо (2013)
Зловісні мерці (2013)
Іда (2013)
Лок (2013)
Небраска (2013)
Неймовірна подорож містера Співета (2013) нове
Побічна дія (2013)
Перед північчю (2013)
Снігобур (2013)
Стокер (2013)
TPB: за межами клавіатури (2013)
Гниле місто (2013)
Бердмен (2014)
Вероніка Марс (2014)
Вроджена вада (2014) нове
Дика (2014) нове
Інтерв'ю (2014) нове
Святий Вінсент (2014)
Пісня моря (2014) нове
Призначення (2014) нове
Шеф-кухар (2014)


Авторський реліз (завантажувати можна без реєстрації)
 Трекер:    Зареєстрований   

Завантажити / скачати фільм українською



відео для новачків



 Зареєстрований:   2016-07-22 23:25
 Розмір:   2.62 GB 
 Оцінка фільму:   9.1/10 (Голосів: 19)
   
Інші релізи
   Дияволиці / Diabolique / Les diaboliques (1955) Omikron  7 / 0   1.37 GB   2016-07-22 23:25 
tzapik 
Частий відвідувач


З нами з: 07.08.14
Востаннє: 10.12.16
Повідомлень: 32

2016-07-25 18:18  
1080 ріб чи ремукс буде?
13Mark 
Поважний учасник


З нами з: 25.04.08
Востаннє: 10.12.16
Повідомлень: 179

2016-09-10 22:56  
Хороший фільм, якісний, тримає в напрузі і дивиться на одному диханні.
Ваш часовий пояс: GMT + 2 Години

Нова тема   Відповісти