Завантажити та скачати торренти українською


Антбой 3 / Antboy 3 (2016) 1080p Ukr/Dan

Нові коментарі

Нова тема   Відповісти
Автор Повідомлення
1101 
Свій


З нами з: 09.07.12
Востаннє: 24.11.16
Повідомлень: 62

2016-07-22 20:16  
Антбой 3 / Antboy 3 (2016) 1080p Ukr/Dan

Антбой 3 / Antboy 3 (2016) 1080p Ukr/Dan


Жанр: сімейний, детектив
Країна: Данія



Кінокомпанія: Nimbus Film Productions
Режисер: Аск Хассельбах / Ask Hasselbalch
Актори: Оскар Дітц, Самуель Тінг Граф, Амалі Крусе Єнсен, Астрід Юнкер-Бензон, Паприка Стеєн, Ніколас Бро та інші.

Сюжет:
Пілле насолоджується життям. Іда нарешті стала його подругою, а Антбой переміг всіх суперлиходіїв у місті. Пілле збирається прибрати костюм хлопчика-мурахи на полицю і провести час з Ідою, але літні канікули кардинально змінюють плани. Спочатку новий і загадковий супергерой виходить у світ та краде всю увага журналістів та містян. І до всього цього заклятого ворога хлопчика-мурахи – Блоху – випустили на свободу! І той одразу ж отримує пропозицію від нового директора медичної компанії «Екзофарм» Алісії Дюфорт знову зайнятися виготовленням сироватки «Геркулес», котра дала Блосі його суперсилу. Хто з нових і старих знайомих виявиться другом, а хто ворогом – і доведеться зясувати Антбою. Найбільший і небезпечний бій ось-ось почнеться.


Тривалість: 01:20:57
Якість: 1080p
Відео:
кодек: AVC
розмір кадру: 1920 х 1038
бітрейт: 6112 кб/с

Аудіо # 1:
мова: українська
переклад: одноголосий закадровий Зразок https://www.sendspace.com/file/w862gq
кодек: 5.1
бітрейт: 320 кб/с

Аудіо # 2:
мова: українська
переклад: одноголосий закадровий
кодек: MP3
бітрейт: 320 кб/с

Аудіо # 3:
мова: данська
переклад: оригінал
кодек: 5.1
бітрейт: 384 кб/с

Попередня частина - https://toloka.to/t73371

Джерело озвучення:


Український трейлер
Скріншоти




Медіа Інфо

Format : Matroska
Format version : Version 2
File size : 3.46 GiB
Duration : 1h 20mn
Overall bit rate : 6 112 Kbps
Movie name : ROLLiT @ www.DanishBits.org
Encoded date : UTC 2016-07-22 16:05:12
Writing application : mkvmerge v5.0.0 ('Die Wahre Liebe') built on Sep 25 2011 20:33:49
Writing library : libebml v1.2.2 + libmatroska v1.3.0

Video
ID : 1
Format : AVC
Format/Info : Advanced Video Codec
Format profile : [email protected]
Format settings, CABAC : Yes
Format settings, ReFrames : 4 frames
Codec ID : V_MPEG4/ISO/AVC
Duration : 1h 20mn
Width : 1 920 pixels
Height : 1 038 pixels
Display aspect ratio : 1.850
Frame rate : 25.000 fps
Color space : YUV
Chroma subsampling : 4:2:0
Bit depth : 8 bits
Scan type : Progressive
Language : English
Default : Yes
Forced : No
Color primaries : BT.709-5, BT.1361, IEC 61966-2-4, SMPTE RP177
Transfer characteristics : BT.709-5, BT.1361
Matrix coefficients : BT.709-5, BT.1361, IEC 61966-2-4 709, SMPTE RP177

Audio #1
ID : 2
Format :
Format/Info : Advanced Audio Codec
Format profile : LC
Codec ID : A_AAC
Duration : 1h 20mn
Channel(s) : 6 channels
Channel positions : Front: L C R, Side: L R, LFE
Sampling rate : 48.0 KHz
Compression mode : Lossy
Language : Ukrainian
Default : Yes
Forced : Yes

Audio #2
ID : 3
Format : MPEG Audio
Format version : Version 1
Format profile : Layer 3
Mode : Joint stereo
Codec ID : A_MPEG/L3
Codec ID/Hint : MP3
Duration : 1h 20mn
Bit rate mode : Constant
Bit rate : 320 Kbps
Channel(s) : 2 channels
Sampling rate : 44.1 KHz
Compression mode : Lossy
Stream size : 185 MiB (5%)
Language : Ukrainian
Default : No
Forced : No

Audio #3
ID : 4
Format : AC-3
Format/Info : Audio Coding 3
Mode extension : CM (complete main)
Codec ID : A_AC3
Duration : 1h 20mn
Bit rate mode : Constant
Bit rate : 384 Kbps
Channel(s) : 6 channels
Channel positions : Front: L C R, Side: L R, LFE
Sampling rate : 48.0 KHz
Bit depth : 16 bits
Compression mode : Lossy
Stream size : 222 MiB (6%)
Language : Danish
Default : No
Forced : No

Menu
00:00:00.000 : en:1
00:15:00.000 : en:2
00:30:00.000 : en:3
00:45:00.000 : en:4
01:00:00.000 : en:5
01:15:49.000 : en:6
Особиста оцінка: 10 - без зайвих вагань рекомендую всім!


Авторський реліз (завантажувати можна без реєстрації)
 Трекер:    Зареєстрований   

Завантажити / скачати фільм українською



відео для новачків



 Зареєстрований:   2016-07-22 20:16
 Розмір:   3.46 GB 
 Оцінка фільму:   5.8/10 (Голосів: 8)
   
urij546724 
Відео Гуртом - фільмокрай
Відео Гуртом - фільмокрай


З нами з: 16.03.10
Востаннє: 03.12.16
Повідомлень: 5222

2016-07-29 06:07  
1101 написано:
розмір кадру: 1920 х 1038

Цей реліз варто б у HD перенести.

bot 
робот


З нами з: 30.09.07
Востаннє: 26.05.05
Повідомлень: 15975

2016-07-31 16:09  
Тему перенесено з Фільми до форуму Фільми в HD


Neo777

1101 
Свій


З нами з: 09.07.12
Востаннє: 24.11.16
Повідомлень: 62

2016-08-09 21:10  
urij546724 написано:
Цей реліз варто б у HD перенести.

bot написано:
Тему перенесено з Фільми до форуму Фільми в HD

Раз пішла така гулянка, то, може, й статус "Авторський реліз" причепите?

igor911 
Відео Гуртом
Відео Гуртом


З нами з: 18.01.08
Востаннє: 03.12.16
Повідомлень: 5115

2016-10-23 20:31  
1101, поставив "Авторський", вибач, що так пізно.

Додано через 31 секунду:

Дякую за озвучення.

Ваш часовий пояс: GMT + 2 Години

Нова тема   Відповісти