Завантажити та скачати торренти українською


Магія місячного світла / Magic in the Moonlight (2014) 720p Eng | sub Ukr / Eng

Нові коментарі

Нова тема   Відповісти
Автор Повідомлення
antusyrzhuk 
Свій


З нами з: 09.06.09
Востаннє: 19.11.16
Повідомлень: 145

2016-07-22 13:48  
Магія місячного світла / Magic in the Moonlight (2014) 720p Eng | sub Ukr / Eng

Магія місячного світла / Magic in the Moonlight (2014) 720p Eng | sub Ukr / Eng


Жанр: комедія, романтичний
Країна: США, Великобританія



Кінокомпанія: Gravier Productions, Dippermouth Productions, Perdido Productions
Режисер: Вуді Аллен (Woody Allen)
Актори: Колін Ферт (Colin Firth), Саймон МакБерні (Simon McBurney), Кетрін МакКормак (Catherine McCormack), Ейлін Еткінс (Eileen Atkins), Геміш Лінклейтер (Hamish Linklater), Емма Стоун (Emma Stone) та ін.

Сюжет:
Стенлі - ілюзіоніст, що присвятив життя викриттю спіритів-шахраїв. Він планує швидко викрити ще одну таку спіритку, але все ускладнюється, коли він починає вірити у правдивість її дару.


Тривалість: 01:37:38
Якість:
Відео:
кодек:
розмір кадру: 1280 х 536
бітрейт: 4895 кб/с

Аудіо:
мова: англійська
переклад: оригінал
кодек: 5.1
бітрейт: 1509 кб/с

Субтитри:
мова: українська
тип: програмні (м'які)
формат: *.srt
переклад власний

Субтитри:
мова: англійська
тип: пререндерні
формат: *.sub + *.idx
Скріншоти


MediaInfo
Format : Matroska
Format version : Version 4 / Version 2
File size : 4.38 GiB
Duration : 1h 37mn
Overall bit rate : 6 418 Kbps
Movie name : Magic in the Moonlight*2014 /antusyrzhuk
Encoded date : UTC 2015-01-18 19:29:29
Writing application : mkvmerge v6.5.0 ('Isn't she lovely') built on Oct 20 2013 12:50:05
Writing library : libebml v1.3.0 + libmatroska v1.4.1

Video
ID : 1
Format : AVC
Format/Info : Advanced Video Codec
Format profile : [email protected]
Format settings, CABAC : Yes
Format settings, ReFrames : 5 frames
Codec ID : V_MPEG4/ISO/AVC
Duration : 1h 37mn
Bit rate : 4 895 Kbps
Width : 1 280 pixels
Height : 536 pixels
Display aspect ratio : 2.40:1
Frame rate mode : Constant
Frame rate : 23.976 fps
Color space : YUV
Chroma subsampling : 4:2:0
Bit depth : 8 bits
Scan type : Progressive
Bits/(Pixel*Frame) : 0.298
Stream size : 3.26 GiB (74%)
Writing library : core 142 r2479 dd79a61
Encoding settings : cabac=1 / ref=5 / deblock=1:0:0 / analyse=0x3:0x133 / me=umh / subme=7 / psy=1 / psy_rd=1.00:0.00 / mixed_ref=1 / me_range=16 / chroma_me=1 / trellis=1 / 8x8dct=1 / cqm=0 / deadzone=21,11 / fast_pskip=0 / chroma_qp_offset=-2 / threads=18 / lookahead_threads=3 / sliced_threads=0 / nr=0 / decimate=1 / interlaced=0 / bluray_compat=0 / constrained_intra=0 / bframes=3 / b_pyramid=2 / b_adapt=1 / b_bias=0 / direct=1 / weightb=1 / open_gop=0 / weightp=2 / keyint=250 / keyint_min=23 / scenecut=40 / intra_refresh=0 / rc_lookahead=40 / rc=2pass / mbtree=1 / bitrate=4895 / ratetol=1.0 / qcomp=0.60 / qpmin=0 / qpmax=69 / qpstep=4 / cplxblur=20.0 / qblur=0.5 / ip_ratio=1.40 / aq=1:1.00
Language : English
Default : Yes
Forced : No

Audio
ID : 2
Format :
Format/Info : Digital Theater Systems
Mode : 16
Format settings, Endianness : Big
Codec ID : A_DTS
Duration : 1h 37mn
Bit rate mode : Constant
Bit rate : 1 509 Kbps
Channel(s) : 6 channels
Channel positions : Front: L C R, Side: L R, LFE
Sampling rate : 48.0 KHz
Bit depth : 24 bits
Compression mode : Lossy
Stream size : 1.03 GiB (24%)
Language : English
Default : Yes
Forced : No

Text #1
ID : 3
Format : UTF-8
Codec ID : S_TEXT/UTF8
Codec ID/Info : UTF-8 Plain Text
Language : Ukrainian
Default : Yes
Forced : No

Text #2
ID : 4
Format : VobSub
Muxing mode : zlib
Codec ID : S_VOBSUB
Codec ID/Info : The same subtitle format used on DVDs
Language : English
Default : No
Forced : No

Text #3
ID : 5
Format : VobSub
Muxing mode : zlib
Codec ID : S_VOBSUB
Codec ID/Info : The same subtitle format used on DVDs
Language : English
Default : No
Forced : No
Джерело:
Особиста оцінка: 7 - Вуді Аллен вже не той...


Золотий реліз (завантажене не впливає на рейтинг)
 Трекер:    Зареєстрований   

Завантажити / скачати фільм українською



відео для новачків



 Зареєстрований:   2016-07-22 13:48
 Розмір:   4.38 GB 
 Оцінка фільму:   9.6/10 (Голосів: 5)
   
Ваш часовий пояс: GMT + 2 Години

Нова тема   Відповісти