Завантажити та скачати торренти українською


Люди Ікс: Апокаліпсис / X-Men: Apocalypse (2016) 720p Ukr/Eng | Sub Ukr/Eng

Нові коментарі

Нова тема   Відповісти
Автор Повідомлення
Anonymous 







2016-07-21 13:30  
Люди Ікс: Апокаліпсис / X-Men: Apocalypse (2016) 720p Ukr/Eng | Sub Ukr/Eng

Люди Ікс: Апокаліпсис / X-Men: Apocalypse (2016) 720p Ukr/Eng | Sub Ukr/Eng


Жанр: фантастика, пригодницький, екшн
Країна: США



Кінокомпанія: Twentieth Century Fox Film Corporation, Marvel Entertainment, TSG Entertainment, Bad Hat Harry Productions, Donners' Company, Kinberg Genre, Mel's Cite du Cinema
Режисер: Браян Сінґер / Bryan Singer
Актори: Джеймс МакЕвой, Майкл Фассбендер, Дженніфер Лоуренс, Ніколас Голт, Олівія Манн, Софі Тернер, Оскар Айзек, Роуз Бірн, Еван Пітерс, Тай Шерідан

Сюжет:
Цього разу загону молодих мутантів належить битися з новим, більш сильним суперником, який називає себе Апокаліпсисом. Це перший мутант, що володіє колосальною силою і якому поклонялися в стародавньому Єгипті. Прокинувшись після тисячолітнього сну, безсмертний Апокаліпсис розчаровується в новому світі і вирішує його змінити. В якості помічників він обирає чотирьох мутантів, завдання яких перетворити наш світ на руїни. Однак Чарльз Ксавьє не може допустити, щоб подібне трапилося, навіть не дивлячись на ставлення звичайних людей до таких, як він.


Тривалість: 02:23:56
Якість: 720p [VietHD]
Відео:
кодек:
розмір кадру: 1280 х 534
бітрейт: 6735 Кбіт/с [crf=15.8]

Аудіо # 1:
мова: українська
переклад: професійний дубльований
кодек: 5.1
бітрейт: 448 Кбіт/с

Аудіо # 2:
мова: англійська
переклад: оригінал
кодек: 5.1
бітрейт: 640 Кбіт/с

Аудіо # 3:
мова: англійська
переклад: коментарі Браяна Сінґера та Саймона Кінберга
кодек: 2.0
бітрейт: 224 Кбіт/с

Субтитри # 1-2:
мова: українська (форсовані, повні)
тип: програмні (м'які)
формат: *.srt

Субтитри # 3-4:
мова: англійська (форсовані, повні)
тип: програмні (м'які)
формат: *.srt

Збережено оригінальні розділи, як на Blu-ray.
MediaInfo
Код:
Complete name               : X-Men Apocalypse (2016) [Ukr,Eng sub.Ukr,Eng] 720p [Hurtom].mkv
Format                      : Matroska
Format version              : Version 4 / Version 2
File size                   : 8.09 GiB
Duration                    : 2 h 23 min
Overall bit rate            : 8 050 kb/s
Movie name                  : Люди Ікс: Апокаліпсис / X-Men: Apocalypse (2016) [Ukr,Eng sub.Ukr,Eng] 720p [Hurtom] by igor911
Writing library             : libebml v1.3.4 + libmatroska v1.4.5
Cover                       : Yes
Attachments                 : cover.jpg / cover_land.jpg / small_cover.jpg / small_cover_land.jpg

Video
ID                          : 1
Format                      : AVC
Format/Info                 : Advanced Video Codec
Format profile              : [email protected]
Format settings, CABAC      : Yes
Format settings, ReFrames   : 12 frames
Codec ID                    : V_MPEG4/ISO/AVC
Duration                    : 2 h 23 min
Bit rate                    : 6 735 kb/s
Width                       : 1 280 pixels
Height                      : 534 pixels
Display aspect ratio        : 2.40:1
Original display aspect rat : 2.40:1
Frame rate mode             : Constant
Frame rate                  : 23.976 (24000/1001) FPS
Color space                 : YUV
Chroma subsampling          : 4:2:0
Bit depth                   : 8 bits
Scan type                   : Progressive
Bits/(Pixel*Frame)          : 0.411
Stream size                 : 6.77 GiB (84%)
Title                       : Люди Ікс: Апокаліпсис / X-Men: Apocalypse (2016) 720p [VietHD]
Writing library             : core 148 r2705.16 d50a22e VietHD_Custom_64
Encoding settings           : cabac=1 / ref=12 / deblock=1:-3:-3 / analyse=0x3:0x133 / me=umh / subme=11 / psy=1 / fade_compensate=0.00 / psy_rd=1.00:0.00 / mixed_ref=1 / me_range=32 / chroma_me=1 / trellis=2 / 8x8dct=1 / cqm=0 / deadzone=21,11 / fast_pskip=0 / chroma_qp_offset=-2 / threads=17 / lookahead_threads=2 / sliced_threads=0 / nr=0 / decimate=0 / interlaced=0 / bluray_compat=0 / constrained_intra=0 / fgo=0 / bframes=9 / b_pyramid=2 / b_adapt=2 / b_bias=0 / direct=3 / weightb=1 / open_gop=0 / weightp=2 / keyint=250 / keyint_min=23 / scenecut=40 / intra_refresh=0 / rc_lookahead=60 / rc=crf / mbtree=0 / crf=15.8000 / qcomp=0.65 / qpmin=0:0:0 / qpmax=69:69:69 / qpstep=4 / vbv_maxrate=62500 / vbv_bufsize=78125 / crf_max=0.0 / nal_hrd=none / filler=0 / ip_ratio=1.30 / pb_ratio=1.20 / aq=3:0.80 / aq-sensitivity=10.00 / aq-factor=1.00:1.00:1.00 / aq2=0 / aq3=0
Language                    : English
Default                     : Yes
Forced                      : No

Audio #1
ID                          : 2
Format                      : AC-3
Format/Info                 : Audio Coding 3
Mode extension              : CM (complete main)
Format settings, Endianness : Big
Codec ID                    : A_AC3
Duration                    : 2 h 23 min
Bit rate mode               : Constant
Bit rate                    : 448 kb/s
Channel(s)                  : 6 channels
Channel positions           : Front: L C R, Side: L R, LFE
Sampling rate               : 48.0 kHz
Frame rate                  : 31.250 FPS (1536 spf)
Compression mode            : Lossy
Stream size                 : 461 MiB (6%)
Title                       : Dub [Blu-ray EUR] 5.1 448 kbps
Language                    : Ukrainian
Default                     : Yes
Forced                      : No

Audio #2
ID                          : 3
Format                      : AC-3
Format/Info                 : Audio Coding 3
Mode extension              : CM (complete main)
Format settings, Endianness : Big
Codec ID                    : A_AC3
Duration                    : 2 h 23 min
Bit rate mode               : Constant
Bit rate                    : 640 kb/s
Channel(s)                  : 6 channels
Channel positions           : Front: L C R, Side: L R, LFE
Sampling rate               : 48.0 kHz
Frame rate                  : 31.250 FPS (1536 spf)
Compression mode            : Lossy
Stream size                 : 659 MiB (8%)
Title                       : Original, 5.1 640 Kbps
Language                    : English
Default                     : No
Forced                      : No

Audio #3
ID                          : 4
Format                      : AC-3
Format/Info                 : Audio Coding 3
Mode extension              : CM (complete main)
Format settings, Endianness : Big
Codec ID                    : A_AC3
Duration                    : 2 h 23 min
Bit rate mode               : Constant
Bit rate                    : 224 kb/s
Channel(s)                  : 2 channels
Channel positions           : Front: L R
Sampling rate               : 48.0 kHz
Frame rate                  : 31.250 FPS (1536 spf)
Compression mode            : Lossy
Stream size                 : 231 MiB (3%)
Title                       : Audio Commentary by Bryan Singer and Simon Kinberg, 2.0 224 kbps
Language                    : English
Default                     : No
Forced                      : No

Text #1
ID                          : 5
Format                      : UTF-8
Codec ID                    : S_TEXT/UTF8
Codec ID/Info               : UTF-8 Plain Text
Duration                    : 2 h 20 min
Bit rate                    : 2 b/s
Count of elements           : 98
Stream size                 : 2.70 KiB (0%)
Title                       : Ukr Forced [Blu-ray EUR] [Hurtom-igor911]
Language                    : Ukrainian
Default                     : Yes
Forced                      : No

Text #2
ID                          : 6
Format                      : UTF-8
Codec ID                    : S_TEXT/UTF8
Codec ID/Info               : UTF-8 Plain Text
Duration                    : 2 h 22 min
Bit rate                    : 49 b/s
Count of elements           : 1463
Stream size                 : 51.4 KiB (0%)
Title                       : Ukr Full [Blu-ray EUR] [Hurtom-igor911]
Language                    : Ukrainian
Default                     : No
Forced                      : No

Text #3
ID                          : 7
Format                      : UTF-8
Codec ID                    : S_TEXT/UTF8
Codec ID/Info               : UTF-8 Plain Text
Duration                    : 1 h 26 min
Bit rate                    : 3 b/s
Count of elements           : 97
Stream size                 : 1.93 KiB (0%)
Title                       : Eng Forced, iTunes
Language                    : English
Default                     : No
Forced                      : No

Text #4
ID                          : 8
Format                      : UTF-8
Codec ID                    : S_TEXT/UTF8
Codec ID/Info               : UTF-8 Plain Text
Duration                    : 2 h 12 min
Bit rate                    : 38 b/s
Count of elements           : 1458
Stream size                 : 37.6 KiB (0%)
Title                       : Eng Full iTunes
Language                    : English
Default                     : No
Forced                      : No

Menu
00:00:00.000                : en:00:00:00.000
00:08:18.790                : en:00:08:18.790
00:14:13.186                : en:00:14:13.186
00:18:07.086                : en:00:18:07.086
00:24:55.494                : en:00:24:55.494
00:30:45.343                : en:00:30:45.343
00:36:35.235                : en:00:36:35.235
00:41:00.083                : en:00:41:00.083
00:45:56.504                : en:00:45:56.504
00:49:24.295                : en:00:49:24.295
00:55:22.611                : en:00:55:22.611
00:59:36.823                : en:00:59:36.823
01:04:43.671                : en:01:04:43.671
01:12:35.851                : en:01:12:35.851
01:17:32.898                : en:01:17:32.898
01:22:18.517                : en:01:22:18.517
01:27:45.594                : en:01:27:45.594
01:34:05.807                : en:01:34:05.807
01:36:46.634                : en:01:36:46.634
01:39:50.902                : en:01:39:50.902
01:43:34.375                : en:01:43:34.375
01:49:57.382                : en:01:49:57.382
01:55:08.360                : en:01:55:08.360
01:57:21.660                : en:01:57:21.660
02:03:50.548                : en:02:03:50.548
02:07:56.711                : en:02:07:56.711
02:10:59.101                : en:02:10:59.101
02:12:54.091                : en:02:12:54.091
Скріншоти
Оригінал <----------> Ріп











Джерело: &
Витягнення з блурей диска та розпізнавання українських субтитрів - igor911


 Трекер:    Зареєстрований   

Завантажити / скачати фільм українською



відео для новачків



 Зареєстрований:   2016-09-14 19:01
 Розмір:   8.09 GB 
 Оцінка фільму:   8.2/10 (Голосів: 102)
   
Anubys 
VIP


З нами з: 09.11.09
Востаннє: 09.12.16
Повідомлень: 278

2016-07-22 10:13  
Дякую.
Прокат пропустив.
Треба глянути.

borro 
Новенький


З нами з: 09.01.15
Востаннє: 09.12.16
Повідомлень: 20

2016-07-22 21:40  
дякую за рідну мову.
oster_ok 
Відео Гуртом - підтримка та поширення
Відео Гуртом - підтримка та поширення


З нами з: 20.11.11
Востаннє: 10.12.16
Повідомлень: 38

2016-07-24 19:39  
в якому порядку потрібно переглянути усі частини Людей Ікс, щоб сюжет був в правильному порядку?
На інших сайтах знайшов таку рекомендацію:

Anonymous 







2016-09-09 22:03  
Реліз оновлено!
Замінено відеоряд на якісніший і без корейських сутритрів,
додано українські форсовані субтитри


Додано через 1 хвилину 9 секунд:

з появою ліцензійної доріжки реліз буде оновлено (орієнтовно 18-20.09)

Anonymous 







2016-09-14 20:56  
Реліз оновлено!
Замінено відеоряд на якісніший, український звук - на ліцензійний 5.1, додано повні та форсовані українські субтитри з блу-рея, коментарі авторів фільму

Остаточний варіант, золото на тиждень.

Додано через 1 годину 50 хвилин 59 секунд:

Remux

Ваш часовий пояс: GMT + 2 Години

Нова тема   Відповісти