Добровольці Божої Чоти / The Ukrainians (2015) Ukr | Sub Eng

Нові коментарі

Нова тема   Відповісти
Автор Повідомлення
Anonymous 







2016-07-20 18:16  
Добровольці Божої Чоти / The Ukrainians (2015) Ukr | Sub Eng

Добровольці Божої Чоти / The Ukrainians (2015) Ukr | Sub Eng


Жанр: документальний, військовий, історичний
Країна: Україна



Кінокомпанія: Зелене Плем'я, РІК-ТБ Продакшн
Режисер: Леонід Кантер, Іван Ясній
Актори: "Чорний", Валерій Чоботарь "Гатило", Андрій Шараскін "Богема", "Зухвалий", Олександр Чуб, "Зелений", "Нельсон", "Данте", Яна Зінкевич, бійці ДУК ПС

Сюжет:
Цей фільм - історія творення нової української армії. Повсталий народ скинув кримінальний уряд і вигнав васалів Російської Імперії. Розлючений колонізатор кидає на Україну свої війська та захоплює частину території. Президент України підписує угоду про перемир'я та лінію розмежування сторін. Згідно цієї угоди Донецький міжнародний аеропорт опинився за цією лінією. Але патріоти-добровольці не згодні віддавати його ворогові. 242 дні тривала героїчна оборона, доки кинуті командуванням (ГШ ЗСУ) напризволяще захисники не були підірвані ворогом 19 січня 2015 року у будівлі нового терміналу, внаслідок чого загинули або потрапили у полон.

Трейлери



Тривалість: 01:25:43
Якість: (власний ріп)
Відео:
кодек:
розмір кадру: 720 х 408
бітрейт: 2100 Кбіт/с

Аудіо:
мова: українська
переклад: оригінал
кодек: 2.0
бітрейт: 224 Кбіт/с

Субтитри:
мова: англійська
тип: вбудовані (жорсткі)
MediaInfo
Код:
Complete name               : The Ukrainians (2015) [Hurtom].avi
Format                      : AVI
Format/Info                 : Audio Video Interleave
File size                   : 1.40 GiB
Duration                    : 1 h 25 min
Overall bit rate            : 2 333 kb/s
Movie name                  : Добровольці Божої Чоти / The Ukrainians (2015) [Hurtom]
Director                    : igor911
Genre                       : Military & War
Writing application         : VirtualDubModUkr 1.5.10.2 (build 2542/release)
Original source form/Name   : Documentary
Copyright                   : Hurtom
Comment                     : 20.07.2016

Video
ID                          : 0
Format                      : MPEG-4 Visual
Format profile              : Advanced [email protected]
Format settings, BVOP       : 1
Format settings, QPel       : No
Format settings, GMC        : No warppoints
Format settings, Matrix     : Default (H.263)
Codec ID                    :
Codec ID/Hint               :
Duration                    : 1 h 25 min
Bit rate                    : 2 100 kb/s
Width                       : 720 pixels
Height                      : 408 pixels
Display aspect ratio        : 16:9
Frame rate                  : 25.000 FPS
Color space                 : YUV
Chroma subsampling          : 4:2:0
Bit depth                   : 8 bits
Scan type                   : Progressive
Compression mode            : Lossy
Bits/(Pixel*Frame)          : 0.286
Stream size                 : 1.26 GiB (90%)
Writing library             : 1.2.1 (UTC 2008-12-04)

Audio
ID                          : 1
Format                      : AC-3
Format/Info                 : Audio Coding 3
Mode extension              : CM (complete main)
Format settings, Endianness : Big
Codec ID                    : 2000
Duration                    : 1 h 25 min
Bit rate mode               : Constant
Bit rate                    : 224 kb/s
Channel(s)                  : 2 channels
Channel positions           : Front: L R
Sampling rate               : 48.0 kHz
Frame rate                  : 31.250 FPS (1536 spf)
Compression mode            : Lossy
Stream size                 : 137 MiB (10%)
Alignment                   : Split accross interleaves
Interleave, duration        : 40  ms (1.00 video frame)
Interleave, preload duratio : 500  ms
Ще скріншоти


Пам'яті полеглих бійців ДУК ПС

Спробую викладати тут матеріали про героїв, що віддали життя за Україну:
Герої не вмирають. Олександр Райхерт


Олександр Райхерт "Чорний" загинув 09 листопада 2014 року в с. Піски біля Донецького аеропорту від тяжкого поранення.
18-річний боєць штурмової роти 5-го ОБ ДУК "Правий Сектор" добровольцем пішов на війну. Батькам сказавши, що поїхав на море. Саша говорив, що війну потрібно закінчити на сході, щоб не літали міни і гради над рідним Херсоном.
Любов Лагутенко, журналіст: «Саша Райхерт дуже не любив несправедливості ... Він був сильним, - виступав у показових виступах, але ніколи цим не хизувався. І не прощав іншим, хто вдавався до сили, він завжди захищав слабких ... У свої 18 років старший син в сім'ї Райхерт прийняв гідне чоловіка рішення - відклав навчання в технікумі і пішов захищати Батьківщину. Про його рішення батьки і близькі дізналися тоді, коли він вже перебував у зоні бойових дій. Саша був наймолодшим серед добровольців Херсонщини, наймолодшим серед воїнів АТО, загиблих під Пісками ... Своїм однокурсникам він запам'ятався відданим другом, у якого будь-яка справа ладилася, а ще - веселим хлопцем ... Багато співав, грав на гітарі, яку у важкий для країни час змінив на зброю. Інакше і бути не могло - він з юних років відчував себе Захисником .... Світла, вдячна пам'ять Тобі, дорогий земляк, патріот Батьківщини своєї .... Ти віддав своє юне життя за мир на нашій землі ... І ми будемо це пам'ятати ...»



Особиста оцінка: 10 - без зайвих вагань рекомендую всім!


Золотий реліз (завантажене не впливає на рейтинг)
 Трекер:    Зареєстрований   

Завантажити фільм українською



відео для новачків



 Зареєстрований:   2016-07-20 18:16
 Розмір:   1.4 GB 
 Оцінка фільму:   8.4/10 (Голосів: 58)
   
Форкуш 
VIP


З нами з: 03.02.10
Востаннє: 23.01.17
Повідомлень: 1598

2016-07-20 22:10  

Anonymous 







2016-07-21 10:36  
respect14 
VIP


З нами з: 26.01.11
Востаннє: 23.01.17
Повідомлень: 429

2016-07-22 12:44  
Рейтинг крутий) добре хоч москалики ще мынусыв не наклацали
Форкуш 
VIP


З нами з: 03.02.10
Востаннє: 23.01.17
Повідомлень: 1598

2016-08-19 00:00  
Вкажіть в назвах sub Eng!!!
ЕНЕЙ.12 
VIP


З нами з: 18.11.13
Востаннє: 23.01.17
Повідомлень: 460

2016-09-01 15:26  
Багато чув, ще раніше, нарешті переглянув!
Добре знято, багато правильного і багато потрібного сказано і показано!!!

lpershyi 
Попереджень: 2
Попереджень: 2 


З нами з: 04.01.11
Востаннє: 27.12.16
Повідомлень: 2622

2016-09-01 17:16  
ЕНЕЙ.12 написано:
багато потрібного сказано
тобто є і багато непотребу, зайвого?
ЕНЕЙ.12 
VIP


З нами з: 18.11.13
Востаннє: 23.01.17
Повідомлень: 460

2016-09-04 22:31  
А Ви, lpershyi , світ бачите тільки в протилежностях: "якщо просто попив води, то потрібно заїсти вогнем"?!))
Я взагалі-то мав на увазі, що слова доходили прямо в душу, чи то "врізалися в свідомість" - це особисто моє сприйняття переглянутого! І ще тут показують як добробати (зокрема ДУК) вплинули на хід подій, а не як в інших, що я переглядав. де про них так бігцем або не охоче згадують!

Сподіваюся, тепер у Вас lpershyi , не виникатиме подібного роду питань)

Anonymous 







2016-11-08 19:06  
Додав спойлер "Пам'яті полеглих бійців ДУК ПС", куди викладатиму матеріали про загиблих бійців ДУК ПС.
Ваш часовий пояс: GMT + 2 Години

Нова тема   Відповісти