Добровольці Божої Чоти / The Ukrainians (2015) 1080p Ukr | Sub Eng

Нові коментарі

Нова тема   Відповісти
Автор Повідомлення
Anonymous 







2016-07-20 15:13  
Добровольці Божої Чоти / The Ukrainians (2015) 1080p Ukr | Sub Eng

Добровольці Божої Чоти / The Ukrainians (2015) 1080p Ukr | Sub Eng


Жанр: документальний, військовий, історичний
Країна: Україна



Офіційний сайт: http://www.ukrainians.net.ua
Кінокомпанія: Зелене Плем'я, РІК-ТБ Продакшн
Режисер: Леонід Кантер, Іван Ясній
Актори: "Чорний", Валерій Чоботарь "Гатило", Андрій Шараскін "Богема", "Зухвалий", Олександр Чуб, "Зелений", "Нельсон", "Данте", Яна Зінкевич, бійці ДУК ПС

Сюжет:
Цей фільм - історія творення нової української армії. Повсталий народ скинув кримінальний уряд і вигнав васалів Російської Імперії. Розлючений колонізатор кидає на Україну свої війська та захоплює частину території. Президент України підписує угоду про перемир'я та лінію розмежування сторін. Згідно цієї угоди Донецький міжнародний аеропорт опинився за цією лінією. Але патріоти-добровольці не згодні віддавати його ворогові. 242 дні тривала героїчна оборона, доки кинуті командуванням напризволяще захисники не були підірвані ворогом 19 січня 2015 року у будівлі нового терміналу, внаслідок чого загинули чи потрапили у полон.

Трейлери



Тривалість: 01:25:43
Якість: 1080p
Відео:
кодек:
розмір кадру: 1920 х 1080
бітрейт: 12,7 Мбіт/с

Аудіо:
мова: українська
переклад: оригінал
кодек: 2.0
бітрейт: 320 Кбіт/с

Субтитри:
мова: англійська
тип: вбудовані (жорсткі)
MediaInfo
Код:
Complete name               : The Ukrainians (2015) 1080p [Hurtom].mp4
Format                      : MPEG-4
Format profile              : Base Media / Version 2
Codec ID                    : mp42 (mp42/mp41)
File size                   : 7.78 GiB
Duration                    : 1 h 25 min
Overall bit rate mode       : Variable
Overall bit rate            : 13.0 Mb/s
Encoded date                : UTC 2015-05-04 15:34:31
Tagged date                 : UTC 2015-05-04 15:42:08
©TIM                        : 00:00:00:00
©TSC                        : 25
©TSZ                        : 1

Video
ID                          : 1
Format                      : AVC
Format/Info                 : Advanced Video Codec
Format profile              : [email protected]
Format settings, CABAC      : Yes
Format settings, ReFrames   : 3 frames
Format settings, GOP        : M=4, N=25
Codec ID                    : avc1
Codec ID/Info               : Advanced Video Coding
Duration                    : 1 h 25 min
Bit rate                    : 12.7 Mb/s
Width                       : 1 920 pixels
Height                      : 1 080 pixels
Display aspect ratio        : 16:9
Frame rate mode             : Constant
Frame rate                  : 25.000 FPS
Standard                    : PAL
Color space                 : YUV
Chroma subsampling          : 4:2:0
Bit depth                   : 8 bits
Scan type                   : Progressive
Bits/(Pixel*Frame)          : 0.245
Stream size                 : 7.59 GiB (98%)
Language                    : English
Encoded date                : UTC 2015-05-04 15:34:31
Tagged date                 : UTC 2015-05-04 15:34:31
Color range                 : Limited
Color primaries             : BT.709
Transfer characteristics    : BT.709
Matrix coefficients         : BT.709

Audio
ID                          : 2
Format                      :
Format/Info                 : Advanced Audio Codec
Format profile              : LC
Codec ID                    : 40
Duration                    : 1 h 25 min
Source duration             : 1 h 25 min
Bit rate mode               : Variable
Bit rate                    : 317 kb/s
Maximum bit rate            : 461 kb/s
Channel(s)                  : 2 channels
Channel positions           : Front: L R
Sampling rate               : 48.0 kHz
Frame rate                  : 46.875 FPS (1024 spf)
Compression mode            : Lossy
Stream size                 : 195 MiB (2%)
Source stream size          : 195 MiB (2%)
Language                    : English
Encoded date                : UTC 2015-05-04 15:34:31
Tagged date                 : UTC 2015-05-04 15:34:31
Ще скріншоти


Пам'яті полеглих бійців ДУК ПС

Спробую викладати тут матеріали про героїв, що віддали життя за Україну:
Герої не вмирають. Олександр Райхерт


Олександр Райхерт "Чорний" загинув 09 листопада 2014 року в с. Піски біля Донецького аеропорту від тяжкого поранення.
18-річний боєць штурмової роти 5-го ОБ ДУК "Правий Сектор" добровольцем пішов на війну. Батькам сказавши, що поїхав на море. Саша говорив, що війну потрібно закінчити на сході, щоб не літали міни і гради над рідним Херсоном.
Любов Лагутенко, журналіст: «Саша Райхерт дуже не любив несправедливості ... Він був сильним, - виступав у показових виступах, але ніколи цим не хизувався. І не прощав іншим, хто вдавався до сили, він завжди захищав слабких ... У свої 18 років старший син в сім'ї Райхерт прийняв гідне чоловіка рішення - відклав навчання в технікумі і пішов захищати Батьківщину. Про його рішення батьки і близькі дізналися тоді, коли він вже перебував у зоні бойових дій. Саша був наймолодшим серед добровольців Херсонщини, наймолодшим серед воїнів АТО, загиблих під Пісками ... Своїм однокурсникам він запам'ятався відданим другом, у якого будь-яка справа ладилася, а ще - веселим хлопцем ... Багато співав, грав на гітарі, яку у важкий для країни час змінив на зброю. Інакше і бути не могло - він з юних років відчував себе Захисником .... Світла, вдячна пам'ять Тобі, дорогий земляк, патріот Батьківщини своєї .... Ти віддав своє юне життя за мир на нашій землі ... І ми будемо це пам'ятати ...»



Особиста оцінка: 10 - без зайвих вагань рекомендую всім!


Фріліч (завантажене не впливає на рейтинг)
 Трекер:    Зареєстрований   

Завантажити фільм українською



відео для новачків



 Зареєстрований:   2016-07-20 17:04
 Розмір:   7.78 GB 
 Оцінка фільму:   6.8/10 (Голосів: 29)
   
Anonymous 







2016-07-20 18:18  
1,4 Гб avi: http://toloka.to/t74878
720p

Форкуш 
VIP


З нами з: 03.02.10
Востаннє: 20.01.17
Повідомлень: 1585

2016-07-20 18:24  
Здається автори планували зробити сайт де буде платний показ, а гроші даватимуть бійцям. Може спитаєте у них?
Anonymous 







2016-07-20 18:39  
Форкуш, спитайте самі на фейсбуці, але я сумніваюсь, бо навіщо тоді вони виклали фільм у загальний доступ?
Форкуш 
VIP


З нами з: 03.02.10
Востаннє: 20.01.17
Повідомлень: 1585

2016-07-20 18:41  
igor911
Мені сам Гатило розказував. Казав, що хтось інший виклав...

Anonymous 







2016-07-20 18:44  
Форкуш, фільм викладено членом зйомочної групи.
Віктор 
Відео Гуртом - субтитрування
Відео Гуртом - субтитрування


З нами з: 09.01.10
Востаннє: 20.01.17
Повідомлень: 8679

2016-07-20 18:50  
igor911 написано:
Форкуш, спитайте самі на фейсбуці,

Я запитував перед публікацією на головній (6 днів тому), сказали, що скоро буде сайт.

Anonymous 







2016-07-20 19:00  
Віктор написано:
сказали, що скоро буде сайт.
цікаво, бо на оф.сторінці фільму про це жодного слова.
Wizard_Harry 
Свій


З нами з: 11.10.13
Востаннє: 18.01.17
Повідомлень: 111

2016-07-20 19:04  
Дуже дякую!
Віктор 
Відео Гуртом - субтитрування
Відео Гуртом - субтитрування


З нами з: 09.01.10
Востаннє: 20.01.17
Повідомлень: 8679

2016-07-20 19:10  
igor911 написано:
цікаво, бо на оф.сторінці фільму про це жодного слова.

Для мене не проблема запитати)


Anonymous 







2016-07-21 10:35  
720p
Ua.bos_01 
VIP


З нами з: 22.06.15
Востаннє: 19.01.17
Повідомлень: 1300

2016-08-03 20:36  
Чудовий, надзвичайно сильний та необхідний фільм!
Віктор 
Відео Гуртом - субтитрування
Відео Гуртом - субтитрування


З нами з: 09.01.10
Востаннє: 20.01.17
Повідомлень: 8679

2016-08-12 12:50  
Цитую з фб
Цитата:

Добровольці Божої Чоти
3 год. ·

Вітаємо, дорогі друзі!
До вашої уваги офіційний сайт "Добровольців" - http://www.ukrainians.net.ua/
Наразі він працює в тестовому режимі і можливі певні недоліки та помилки у текстах. Велике прохання повідомляти про них розробника сайту Aliya Karshina, якій ми безмежно вдячні за пророблену роботу!
Також від усього серця дякуємо всім, хто допомагав з перекладами!

Ми розраховуємо, що переглядаючи цей фільм глядачі підтримають дітей, батьки яких загинули захищаючи Україну. Більше інформації щодо цього можна дізнатись від Anna Demid Дякуємо за небайдужість!


На сайті є реквізити.

Форкуш 
VIP


З нами з: 03.02.10
Востаннє: 20.01.17
Повідомлень: 1585

2016-08-19 00:02  
вкажіть в назвах sub Eng
Ваш часовий пояс: GMT + 2 Години

Нова тема   Відповісти