Завантажити та скачати торренти українською


Біґ Сур / Big Sur (2013) 720p Eng | sub Ukr / Eng

Нові коментарі

Нова тема   Відповісти
Автор Повідомлення
antusyrzhuk 
Свій


З нами з: 09.06.09
Востаннє: 19.11.16
Повідомлень: 145

2016-07-15 08:37  
Біґ Сур / Big Sur (2013) 720p Eng | sub Ukr / Eng

Біґ Сур / Big Sur (2013) 720p Eng | sub Ukr / Eng


Жанр: драма
Країна: США



Кінокомпанія: 3311 Productions, Troy Entertainment
Режисер: Майкл Поліш (Michael Polish)
Актори: Жан-Марк Барр (Jean-Marc Barr), Кейт Босворт (Kate Bosworth), Джош Лукас (Josh Lucas), Ентоні Едвардс (Anthony Edwards), Бальтазар Ґетті (Balthazar Getty), Патрік Фішлер (Patrick Fischler) та ін.

Сюжет:
Фільм за однойменним романом Керуака.

Джеку Керуаку вже давно не 26, і він не в дорозі. Його змучила популярність, випивка і наркотики. Рятуючись від усього, він приймає запрошення свого друга Лоуренса Ферлінґетті приїхати в Біґ Сур і пожити у спокої у його хижі, проте і це не допомагає…


Тривалість: 01:21:16
Якість:
Відео:
кодек:
розмір кадру: 1280 х 530
бітрейт: 3677 кб/с

Аудіо:
мова: англійська
переклад: оригінал
кодек: 5.1
бітрейт: 384 кб/с

Субтитри:
мова: українська
тип: програмні (м'які)
формат: *.srt
власний переклад

Субтитри:
мова: англійська
тип: програмні (м'які)
формат: *.srt
Скріншоти


MediaInfo
Format : Matroska
Format version : Version 4 / Version 2
File size : 2.35 GiB
Duration : 1h 21mn
Overall bit rate : 4 144 Kbps
Movie name : Big Sur*2013 /antusyrzhuk
Encoded date : UTC 2014-10-15 11:49:09
Writing application : mkvmerge v7.2.0 ('On Every Street') 64bit built on Sep 13 2014 15:52:10
Writing library : libebml v1.3.0 + libmatroska v1.4.1
DURATION : 01:20:57.500000000
NUMBER_OF_FRAMES : 1189
NUMBER_OF_BYTES : 67290
_STATISTICS_WRITING_APP : mkvmerge v7.2.0 ('On Every Street') 64bit built on Sep 13 2014 15:52:10
_STATISTICS_WRITING_DATE_UTC : 2014-10-15 11:49:09
_STATISTICS_TAGS : BPS DURATION NUMBER_OF_FRAMES NUMBER_OF_BYTES

Video
ID : 1
Format : AVC
Format/Info : Advanced Video Codec
Format profile : [email protected]
Format settings, CABAC : No
Format settings, ReFrames : 2 frames
Codec ID : V_MPEG4/ISO/AVC
Duration : 1h 21mn
Bit rate : 3 677 Kbps
Width : 1 280 pixels
Height : 530 pixels
Display aspect ratio : 2.40:1
Frame rate mode : Constant
Frame rate : 23.976 fps
Color space : YUV
Chroma subsampling : 4:2:0
Bit depth : 8 bits
Scan type : Progressive
Bits/(Pixel*Frame) : 0.226
Stream size : 2.09 GiB (89%)
Language : English
Default : Yes
Forced : No
Color primaries : BT.709
Transfer characteristics : BT.709
Matrix coefficients : BT.709

Audio
ID : 2
Format : AC-3
Format/Info : Audio Coding 3
Mode extension : CM (complete main)
Format settings, Endianness : Big
Codec ID : A_AC3
Duration : 1h 21mn
Bit rate mode : Constant
Bit rate : 384 Kbps
Channel(s) : 6 channels
Channel positions : Front: L C R, Side: L R, LFE
Sampling rate : 48.0 KHz
Bit depth : 16 bits
Compression mode : Lossy
Stream size : 223 MiB (9%)
Language : English
Default : Yes
Forced : No

Text #1
ID : 3
Format : UTF-8
Codec ID : S_TEXT/UTF8
Codec ID/Info : UTF-8 Plain Text
Language : Ukrainian
Default : Yes
Forced : No

Text #2
ID : 4
Format : UTF-8
Codec ID : S_TEXT/UTF8
Codec ID/Info : UTF-8 Plain Text
Language : English
Default : No
Forced : No
Джерело:
Особиста оцінка: 10 - без зайвих вагань рекомендую всім!


Золотий реліз (завантажене не впливає на рейтинг)
 Трекер:    Зареєстрований   

Завантажити / скачати фільм українською



відео для новачків



 Зареєстрований:   2016-07-15 08:37
 Розмір:   2.35 GB 
 Оцінка фільму:   8/10 (Голосів: 1)
   
Форкуш 
VIP


З нами з: 03.02.10
Востаннє: 03.12.16
Повідомлень: 1532

2016-07-17 21:57  
Круте кіно... Тільки шкода, що на читання титрів дуже багато не бачиться фільму...
Ваш часовий пояс: GMT + 2 Години

Нова тема   Відповісти