Завантажити та скачати торренти українською


Бетмен проти Супермена: На зорі справедливості [Розширена версія] / Batman v Superman: Dawn of Justice [Extended Ultimate Edition] (2016) 1080p Ukr/Eng | Sub Ukr/Eng

Нові коментарі

Нова тема   Відповісти
Автор Повідомлення
Demrandir 
Свій


З нами з: 12.10.13
Востаннє: 10.12.16
Повідомлень: 57

2016-07-11 12:47  
Бетмен проти Супермена: На зорі справедливості [Розширена версія] / Batman v Superman: Dawn of Justice [Extended Ultimate Edition] (2016) 1080p Ukr/Eng | Sub Ukr/Eng

Бетмен проти Супермена: На зорі справедливості [Розширена версія] / Batman v Superman: Dawn of Justice [Extended Ultimate Edition] (2016) 1080p Ukr/Eng | Sub Ukr/Eng


Жанр: пригодницький, фантастика, екшн
Країна: США



Кінокомпанія: Warner Bros., Atlas Entertainment, Cruel & Unusual Films
Режисер: Зак Снайдер (Zack Snyder)
Актори: Генрі Кавілл, Бен Аффлек, Емі Адамс, Джейсон Момоа, Джессі Айзенберґ, Ґал Ґадот, Джеффрі Дін Морґан, Даян Лейн, Езра Міллер, Джеремі Айронс

Сюжет:
Після руйнівної боротьби проти генерала Зода, місто Метрополіс було зруйноване вщент. Супермен став найбільш суперечливою персоною в світі. Поки одна частина людства вважає його символом надії, все більше людей схиляється до думки про те, що ця надлюдина несе загрозу для Землі. Брюс Вейн стурбований небезпекою, яку Супермен представляє для суспільства. Він невпевнений у збереженні миру у світі, де така сила залишається безконтрольною. Вейн одягає маску і костюм Бетмена, щоб виправити несправедливість надлюдини. Поки протистояння двох героїв набирає сили, на горизонті з'являється нова загроза. Людина, яка має більше влади, ніж Супермен і Бетмен, готова знищити все, за що вони боролися.


Тривалість: 03:02:33 (порівняння з театральною версією)
Якість: 1080p
Відео:
кодек:
розмір кадру: 1920 х 800
бітрейт: 11700 кб/с

Аудіо # 1:
мова: українська
переклад: професійний дубльований (iTunes) з вставками оригіналу
кодек: 2.0
бітрейт: 192 кб/с

Аудіо # 2:
мова: англійська
переклад: оригінал
кодек: 5.1
бітрейт: 640 кб/с

Субтитри # 1:
мова: українська (форсовані)
тип: програмні (м'які)
формат: *.srt

Субтитри # 2:
мова: українська (повні)
тип: програмні (м'які)
формат: *.srt

Субтитри # 3 - 4:
мова: англійська (Full, SDH)
тип: програмні (м'які)
формат: *.srt
MediaInfo
General
Unique ID : 244191434458745988453490267795961841378 (0xB7B58F408CAC0446B23566DBFD9286E2)
Complete name : E:\Batman.v.Superman.Dawn.of.Justice.[Extended.Ultimate.Edition].2016.BDrip1080p.Ukr.by.Demrandir.mkv
Format : Matroska
Format version : Version 4 / Version 2
File size : 16.0 GiB
Duration : 3h 2mn
Overall bit rate : 12.5 Mbps
Movie name : Batman.v.Superman.Dawn.of.Justice.2016.Extended.Ultimate.Edition..1080p.ExKinoRay
Encoded date : UTC 2016-09-27 12:40:33
Writing application : mkvmerge v9.4.2 ('So High') 64bit
Writing library : libebml v1.3.4 + libmatroska v1.4.5

Video
ID : 1
Format : AVC
Format/Info : Advanced Video Codec
Format profile : [email protected]
Format settings, CABAC : Yes
Format settings, ReFrames : 5 frames
Codec ID : V_MPEG4/ISO/AVC
Duration : 3h 2mn
Bit rate : 11.7 Mbps
Width : 1 920 pixels
Height : 800 pixels
Display aspect ratio : 2.40:1
Frame rate mode : Constant
Frame rate : 23.976 (24000/1001) fps
Color space : YUV
Chroma subsampling : 4:2:0
Bit depth : 8 bits
Scan type : Progressive
Bits/(Pixel*Frame) : 0.318
Stream size : 14.9 GiB (93%)
Title : Batman.v.Superman.Dawn.of.Justice.[Extended.Ultimate.Edition].2016
Writing library : core 146 r2538 121396c
Encoding settings : cabac=1 / ref=5 / deblock=1:-3:-3 / analyse=0x3:0x133 / me=tesa / subme=11 / psy=1 / psy_rd=1.04:0.00 / mixed_ref=1 / me_range=32 / chroma_me=1 / trellis=2 / 8x8dct=1 / cqm=0 / deadzone=21,11 / fast_pskip=0 / chroma_qp_offset=-2 / threads=60 / lookahead_threads=6 / sliced_threads=0 / nr=0 / decimate=0 / interlaced=0 / bluray_compat=0 / constrained_intra=0 / bframes=12 / b_pyramid=2 / b_adapt=2 / b_bias=0 / direct=3 / weightb=1 / open_gop=0 / weightp=2 / keyint=240 / keyint_min=23 / scenecut=40 / intra_refresh=0 / rc_lookahead=150 / rc=crf / mbtree=0 / crf=19.0 / qcomp=0.60 / qpmin=0 / qpmax=69 / qpstep=4 / vbv_maxrate=62500 / vbv_bufsize=78125 / crf_max=0.0 / nal_hrd=none / filler=0 / ip_ratio=1.40 / pb_ratio=1.30 / aq=1:0.80
Language : English
Default : Yes
Forced : No

Audio #1
ID : 2
Format : AC-3
Format/Info : Audio Coding 3
Mode extension : CM (complete main)
Format settings, Endianness : Big
Codec ID : A_AC3
Duration : 3h 2mn
Bit rate mode : Constant
Bit rate : 192 Kbps
Channel(s) : 2 channels
Channel positions : Front: L R
Sampling rate : 48.0 KHz
Frame rate : 31.250 fps (1536 spf)
Compression mode : Lossy
Stream size : 251 MiB (2%)
Title : Ukrainian
Language : Ukrainian
Default : Yes
Forced : Yes

Audio #2
ID : 3
Format : AC-3
Format/Info : Audio Coding 3
Mode extension : CM (complete main)
Format settings, Endianness : Big
Codec ID : A_AC3
Duration : 3h 2mn
Bit rate mode : Constant
Bit rate : 640 Kbps
Channel(s) : 6 channels
Channel positions : Front: L C R, Side: L R, LFE
Sampling rate : 48.0 KHz
Frame rate : 31.250 fps (1536 spf)
Compression mode : Lossy
Stream size : 836 MiB (5%)
Title : Original
Language : English
Default : No
Forced : No

Text #1
ID : 4
Format : UTF-8
Codec ID : S_TEXT/UTF8
Codec ID/Info : UTF-8 Plain Text
Duration : 2h 54mn
Bit rate : 17 bps
Count of elements : 384
Stream size : 22.4 KiB (0%)
Title : Ukrainian forced
Language : Ukrainian
Default : Yes
Forced : Yes

Text #2
ID : 5
Format : UTF-8
Codec ID : S_TEXT/UTF8
Codec ID/Info : UTF-8 Plain Text
Duration : 2h 53mn
Bit rate : 66 bps
Count of elements : 1615
Stream size : 84.1 KiB (0%)
Title : Ukrainian full
Language : Ukrainian
Default : No
Forced : No

Text #3
ID : 6
Format : UTF-8
Codec ID : S_TEXT/UTF8
Codec ID/Info : UTF-8 Plain Text
Duration : 2h 53mn
Bit rate : 39 bps
Count of elements : 1538
Stream size : 50.4 KiB (0%)
Title : Original Full
Language : English
Default : No
Forced : No

Text #4
ID : 7
Format : UTF-8
Codec ID : S_TEXT/UTF8
Codec ID/Info : UTF-8 Plain Text
Duration : 2h 53mn
Bit rate : 46 bps
Count of elements : 1913
Stream size : 58.5 KiB (0%)
Title : SDH
Language : English
Default : No
Forced : No

Menu
00:00:00.000 : en:00:00:00.000
00:10:10.652 : en:00:10:10.652
00:27:00.661 : en:00:27:00.661
00:37:49.225 : en:00:37:49.225
00:46:54.520 : en:00:46:54.520
01:02:04.971 : en:01:02:04.971
01:14:10.613 : en:01:14:10.613
01:28:07.115 : en:01:28:07.115
01:41:46.642 : en:01:41:46.642
01:53:52.617 : en:01:53:52.617
02:02:58.079 : en:02:02:58.079
02:15:04.054 : en:02:15:04.054
02:27:55.075 : en:02:27:55.075
02:36:51.444 : en:02:36:51.444
02:48:27.514 : en:02:48:27.514
02:54:43.765 : en:02:54:43.765
Скріншоти

Зауваження: Аудіодоріжки синхронізував сам (доріжку з українським дубляжем від театральної версії та оригінальну від розширеної версії). На місця без перекладу форсовані субтитри. Повні українські субтитри до розширеної версії знайшов в інтернеті, трохи доповнив їх і частково відредагував фрагменти розширеної версії.

Зауваження 2: Оновлення роздачі - заміна на звук з iTunes. Також трохи відредагував форсовані субтитри, виправивши деякі помилки.

Подяки: пану AngryBirdsUA за доріжку.

Окремо українську аудіодоріжку та субтитри можна завантажити тут

Джерело: &
Особиста оцінка: 8 - мені сподобалося


 Трекер:    Зареєстрований   

Завантажити / скачати фільм українською



відео для новачків



 Зареєстрований:   2016-09-27 15:53
 Розмір:   15.98 GB 
 Оцінка фільму:   8.7/10 (Голосів: 62)
   
Інші релізи
   Бетмен проти Супермена: На зорі справедливості [Розширена версія] / Batman v Superman: Dawn of Justice [Extended Ultimate Edition] (2016) AVC Ukr/Eng | Sub Ukr/Eng 11FrYkT  10 / 0   3.3 GB   2016-10-21 17:13 
   Бетмен проти Супермена: На зорі справедливості [Розширена версія] / Batman v Superman: Dawn of Justice [Extended Ultimate Edition] (2016) [2.0 ] Український дубляж + вставки оригіналу | Sub Ukr Demrandir  0 / 0   251 MB   2016-09-27 15:46 
   Бетмен проти Супермена: На зорі справедливості [Розширена версія] / Batman v Superman: Dawn of Justice [Extended Ultimate Edition] (2016) 1080p 3D [HalfOverUnder] Ukr/Eng | Sub Ukr/Eng GEORGKys  1 / 0   25.29 GB   2016-09-18 21:46 
   Бетмен проти Супермена: На зорі справедливості / Batman v Superman: Dawn of Justice (2016) 1080p Ukr/Eng | Sub Eng 11FrYkT  3 / 0   16.59 GB   2016-09-15 21:04 
   Бетмен проти Супермена: На зорі справедливості / Batman v Superman: Dawn of Justice (2016) 720p Ukr/Eng | Sub Eng 11FrYkT  3 / 0   9.87 GB   2016-09-15 21:00 
   Бетмен проти Супермена: На зорі справедливості / Batman v Superman: Dawn of Justice (2016) AVC AngryBirdsUA  2 / 0   2.18 GB   2016-09-15 21:00 
   Бетмен проти Супермена: На зорі справедливості / Batman v Superman: Dawn of Justice (2016) Covenant  7 / 0   2.18 GB   2016-09-15 09:04 
   Бетмен проти Супермена : На зорі справедливості [Розширена версія] / Batman v Superman: Dawn of Justice (2016) [Extended Ultimate Edition] 720p Ukr/Eng | Sub Ukr/Eng Bod_zik99  7 / 0   9.81 GB   2016-07-12 11:58 
   Бетмен проти Супермена: На зорі справедливості / Batman v Superman: Dawn of Justice (2016) 1080p 3D [HalfOverUnder] Ukr/Eng | sub Eng -VipeR-  5 / 0   10.03 GB   2016-07-09 08:53 
dima77777 
Поважний учасник


З нами з: 28.11.12
Востаннє: 10.12.16
Повідомлень: 198

2016-07-12 07:59  
Класс, дякую вам велике за реліз, ми довго чекали на цей фільм
takcofon 
Новенький


З нами з: 16.01.10
Востаннє: 29.11.16
Повідомлень: 1

2016-08-27 09:41  
ну так собі. не сподобалась ідея протистояння супергероїв. на 6 з 10
Demrandir 
Свій


З нами з: 12.10.13
Востаннє: 10.12.16
Повідомлень: 57

2016-09-27 15:56  
Оновлення роздачі - заміна на звук з iTunes.
Roman7Fedorak 
Частий відвідувач


З нами з: 30.03.12
Востаннє: 10.12.16
Повідомлень: 31

2016-09-28 11:43  
Качаю)
igor911 
Відео Гуртом
Відео Гуртом


З нами з: 18.01.08
Востаннє: 11.12.16
Повідомлень: 5225

2016-09-28 13:11  
Забув, золото на тиждень для підтримки релізу.
Ваш часовий пояс: GMT + 2 Години

Нова тема   Відповісти