Завантажити та скачати торренти українською


Поза законом / Outlaw (2007) 720p Ukr/Eng | Sub Eng

Нові коментарі

Нова тема   Відповісти
Автор Повідомлення
krigg070 
Відео Гуртом - фільмокрай
Відео Гуртом - фільмокрай


З нами з: 29.10.14
Востаннє: 09.12.16
Повідомлень: 365

2016-07-10 22:19  
Поза законом / Outlaw (2007) 720p Ukr/Eng | Sub Eng


Альтернативний постер

Жанр: кримінальний, драма
Країна: Велика Британія



Кінокомпанія: Pathe Productions, Ingenious Film Partners, Vertigo Films
Режисер: Нік Лав
Актори: Шон Бін, Денні Даєр, Руперт Френд, Шон Гарріс, Боб Госкінс, Ленні Джеймс та інші

Сюжет:
На міських вулицях господарюють банди «бритоголових». У контрольовані ними райони поліція не ризикує заглядати. Мирні жителі, натерпівшись від дикого розгулу головорізів, вимушені давати відсіч самостійно. Вони створюють свою антибанду. Але не маючи ніякого досвіду в жорстоких розборках, смільчаки запрошують ветерана іракської війни Браянта, який недавно повернувся з армії.

Тривалість: 01:45:44
Якість: 720p
Відео:
кодек:
розмір кадру: 1 280 х 544
бітрейт: 5 310 кб/с

Аудіо # 1:
мова: українська
переклад: двоголосий закадровий
кодек: 2.0
бітрейт: 192 кб/с

Аудіо # 2:
мова: англійська
переклад: оригінал
кодек: 5.1
бітрейт: 640 кб/с

Субтитри:
мова: англійська
тип: програмні (м'які)
формат: *.srt
Скріншоти
MediaInfo
Код:
General
Unique ID                      : 189740737728002585272663384024137181489 (0x8EBEBCA1F1508C0AA6BFD6762C3DA931)
Complete name                  : D:\Films\Outlaw.2007..720p.ukr.eng_sub.eng.mkv
Format                         : Matroska
Format version                 : Version 2
File size                      : 4.51 GiB
Duration                       : 1h 45mn
Overall bit rate               : 6 112 Kbps
Encoded date                   : UTC 2016-07-10 19:21:31
Writing application            : mkvmerge v3.3.0 ('Language') built on Mar 24 2010 14:59:24
Writing library                : libebml v0.8.0 + libmatroska v0.9.0

Video
ID                             : 1
Format                         : AVC
Format/Info                    : Advanced Video Codec
Format profile                 : [email protected]
Format settings, CABAC         : Yes
Format settings, ReFrames      : 5 frames
Codec ID                       : V_MPEG4/ISO/AVC
Duration                       : 1h 45mn
Bit rate                       : 5 310 Kbps
Width                          : 1 280 pixels
Height                         : 544 pixels
Display aspect ratio           : 2.35:1
Frame rate mode                : Constant
Frame rate                     : 23.976 fps
Color space                    : YUV
Chroma subsampling             : 4:2:0
Bit depth                      : 8 bits
Scan type                      : Progressive
Bits/(Pixel*Frame)             : 0.318
Stream size                    : 3.81 GiB (84%)
Writing library                : core 65 r999 cc51047
Encoding settings              : cabac=1 / ref=5 / deblock=1:0:0 / analyse=0x3:0x133 / me=umh / subme=7 / psy_rd=1.0:0.0 / mixed_ref=1 / me_range=16 / chroma_me=1 / trellis=1 / 8x8dct=1 / cqm=0 / deadzone=21,11 / chroma_qp_offset=-2 / threads=6 / nr=0 / decimate=1 / mbaff=0 / bframes=3 / b_pyramid=1 / b_adapt=1 / b_bias=0 / direct=1 / wpredb=1 / keyint=250 / keyint_min=25 / scenecut=40(pre) / rc=2pass / bitrate=5310 / ratetol=1.0 / qcomp=0.60 / qpmin=10 / qpmax=51 / qpstep=4 / cplxblur=20.0 / qblur=0.5 / ip_ratio=1.40 / pb_ratio=1.30 / aq=1:1.00
Language                       : English
Default                        : Yes
Forced                         : No

Audio #1
ID                             : 2
Format                         : AC-3
Format/Info                    : Audio Coding 3
Mode extension                 : CM (complete main)
Format settings, Endianness    : Big
Codec ID                       : A_AC3
Duration                       : 1h 45mn
Bit rate mode                  : Constant
Bit rate                       : 192 Kbps
Channel(s)                     : 2 channels
Channel positions              : Front: L R
Sampling rate                  : 48.0 KHz
Frame rate                     : 31.250 fps (1536 spf)
Compression mode               : Lossy
Stream size                    : 145 MiB (3%)
Title                          : 2.0 @ 192 kbps - 1+1 [DVO]
Language                       : Ukrainian
Default                        : Yes
Forced                         : No

Audio #2
ID                             : 3
Format                         : AC-3
Format/Info                    : Audio Coding 3
Mode extension                 : CM (complete main)
Format settings, Endianness    : Big
Codec ID                       : A_AC3
Duration                       : 1h 45mn
Bit rate mode                  : Constant
Bit rate                       : 640 Kbps
Channel(s)                     : 6 channels
Channel positions              : Front: L C R, Side: L R, LFE
Sampling rate                  : 48.0 KHz
Frame rate                     : 31.250 fps (1536 spf)
Compression mode               : Lossy
Stream size                    : 484 MiB (10%)
Title                          : 5.1 @ 640 kbps - Original
Language                       : English
Default                        : No
Forced                         : No

Text
ID                             : 4
Format                         : UTF-8
Codec ID                       : S_TEXT/UTF8
Codec ID/Info                  : UTF-8 Plain Text
Title                          : Full
Language                       : English
Default                        : No
Forced                         : No
Джерело:
Особиста оцінка: 0 - ще не дивився
Цитата:
Подяки:
Локалізація постерів: drobik81


 Трекер:    Зареєстрований   

Завантажити / скачати фільм українською



відео для новачків



 Зареєстрований:   2016-07-11 16:08
 Розмір:   4.51 GB 
 Оцінка фільму:   8.6/10 (Голосів: 8)
   
Інші релізи
   Поза законом / Outlaw (2007) Ukr/Eng drop_plz  8 / 0   1.9 GB   2016-12-04 18:37 
strategic 
1k G+


З нами з: 27.01.13
Востаннє: 08.12.16
Повідомлень: 90

2016-07-17 09:00  
Цитата:
Особиста оцінка: 0 - ще не дивився

і не дивіться, воно того не варте.

rkononenko 
Відео Гуртом - субтитрування
Відео Гуртом - субтитрування


З нами з: 24.02.09
Востаннє: 09.12.16
Повідомлень: 1140

2016-08-08 04:55  
krigg070 написано:
Великобританія

Це російською так, українською "Велика Британія" або "Сполучене Королівство"
пс. Дякую за фільм, колись років ~10 тому бачив початок цього фільму (здається) на 1+1, то початок зачепив. Тре буде взятися на нарешті подивиться фільм повністю.

Ваш часовий пояс: GMT + 2 Години

Нова тема   Відповісти