Завантажити та скачати торренти українською


Листи до М. 2/ Listy do M. 2 (2015) 720p Pol | Sub Ukr

Нові коментарі

Нова тема   Відповісти
Автор Повідомлення
bohdk 
Відео Гуртом - субтитрування
Відео Гуртом - субтитрування


З нами з: 23.10.09
Востаннє: 10.12.16
Повідомлень: 561

2016-07-05 20:24  
Листи до М. 2/ Listy do M. 2 (2015) 720p Pol | Sub Ukr

Листи до М. 2/ Listy do M. 2 (2015) 720p Pol | Sub Ukr

Жанр: романтичний, комедія
Країна: Польща



Кінокомпанія: Телевізія Нова (TVN)
Режисер: Мацєй Дейчер (Maciej Dejczer)
Актори: Мацєй Штур (Maciej Stuhr), Рома Гонсьоровска (Roma Gasiorowska), Томаш Кароляк (Tomasz Karolak), Аґнєшка Диґант (Agnieszka Dygant), Пьотр Адамчик (Piotr Adamczyk)

Сюжет:
Минуло чотири роки. Погляньмо ж, як поживають зараз герої нашого улюбленого фільму Listy do M. (2011)


Тривалість: 01:43:21
Якість: 720p
Відео:
кодек:
розмір кадру: 1280x528
бітрейт: 5500 кб/с

Аудіо:
мова: польська
переклад: оригінал
кодек: 5.1
бітрейт: 1509 кб/с

Субтитри:
мова: українська
тип: програмні (м'які)
формат: *.srt
переклад: ivan vyrvyvuho
MediaInfo
General
Unique ID : 213519070404980598992428666599340455370 (0xA0A246F29600E50F9C69A7CCDE0335CA)
Complete name : D:\torrents\Listy do M 2 2015 720p .mkv
Format : Matroska
Format version : Version 4 / Version 2
File size : 5.06 GiB
Duration : 1h 43mn
Overall bit rate : 7 011 Kbps
Movie name : Listy do M2 for hurtom
Encoded date : UTC 2016-07-05 17:51:12
Writing application : mkvmerge v9.1.0 ('Little Earthquakes') 64bit
Writing library : libebml v1.3.3 + libmatroska v1.4.4
DURATION : 01:39:08.888000000
NUMBER_OF_FRAMES : 1066
NUMBER_OF_BYTES : 59298
_STATISTICS_WRITING_APP : mkvmerge v9.1.0 ('Little Earthquakes') 64bit
_STATISTICS_WRITING_DATE_UTC : 2016-07-05 17:51:12
_STATISTICS_TAGS : BPS DURATION NUMBER_OF_FRAMES NUMBER_OF_BYTES

Video
ID : 1
Format : AVC
Format/Info : Advanced Video Codec
Format profile : [email protected]
Format settings, CABAC : Yes
Format settings, ReFrames : 4 frames
Codec ID : V_MPEG4/ISO/AVC
Duration : 1h 43mn
Bit rate : 5 500 Kbps
Width : 1 280 pixels
Height : 528 pixels
Display aspect ratio : 2.40:1
Frame rate mode : Constant
Frame rate : 24.000 fps
Color space : YUV
Chroma subsampling : 4:2:0
Bit depth : 8 bits
Scan type : Progressive
Bits/(Pixel*Frame) : 0.339
Stream size : 3.87 GiB (76%)
Writing library : core 148 r2597 e86f3a1
Encoding settings : cabac=1 / ref=3 / deblock=1:0:0 / analyse=0x3:0x111 / me=hex / subme=5 / psy=1 / psy_rd=1.00:0.00 / mixed_ref=1 / me_range=16 / chroma_me=1 / trellis=0 / 8x8dct=1 / cqm=0 / deadzone=21,11 / fast_pskip=0 / chroma_qp_offset=0 / threads=16 / lookahead_threads=4 / sliced_threads=0 / nr=0 / decimate=1 / interlaced=0 / bluray_compat=0 / constrained_intra=0 / bframes=3 / b_pyramid=2 / b_adapt=1 / b_bias=0 / direct=3 / weightb=1 / open_gop=0 / weightp=1 / keyint=250 / keyint_min=24 / scenecut=40 / intra_refresh=0 / rc_lookahead=0 / rc=2pass / mbtree=0 / bitrate=5500 / ratetol=1.0 / qcomp=0.50 / qpmin=0 / qpmax=69 / qpstep=4 / cplxblur=20.0 / qblur=0.5 / vbv_maxrate=62500 / vbv_bufsize=78125 / nal_hrd=none / filler=0 / ip_ratio=1.40 / pb_ratio=1.30 / aq=0
Language : Polish
Default : Yes
Forced : Yes
Matrix coefficients : BT.709
Color range : Limited

Audio
ID : 2
Format :
Format/Info : Digital Theater Systems
Mode : 16
Format settings, Endianness : Big
Codec ID : A_DTS
Duration : 1h 43mn
Bit rate mode : Constant
Bit rate : 1 509 Kbps
Channel(s) : 6 channels
Channel positions : Front: L C R, Side: L R, LFE
Sampling rate : 48.0 KHz
Bit depth : 24 bits
Compression mode : Lossy
Stream size : 1.09 GiB (22%)
Language : Polish
Default : Yes
Forced : Yes

Text
ID : 3
Format : UTF-8
Codec ID : S_TEXT/UTF8
Codec ID/Info : UTF-8 Plain Text
Title : Ukr by ivan vyrvyvuho
Language : Ukrainian
Default : Yes
Forced : Yes
Скріншоти
Джерело:
Особиста оцінка: 10 - без зайвих вагань рекомендую всім!


Золотий реліз (завантажене не впливає на рейтинг)
 Трекер:    Зареєстрований   

Завантажити / скачати фільм українською



відео для новачків



 Зареєстрований:   2016-07-05 20:24
 Розмір:   5.06 GB 
 Оцінка фільму:   9.5/10 (Голосів: 15)
   
ivan vyrvyvuho 
VIP


З нами з: 19.08.12
Востаннє: 09.12.16
Повідомлень: 836

2016-07-05 21:36  
Файна комедія, прикольно знята, нормальне продовження першої частини.
Мінус те, що знімали весною, дратувало надто яскраве сонце як на 24 грудня.

bohdk 
Відео Гуртом - субтитрування
Відео Гуртом - субтитрування


З нами з: 23.10.09
Востаннє: 10.12.16
Повідомлень: 561

2016-07-05 22:06  
igor911
1280x528, бітрейт 5500 - IMHO, HD?
Мо' я чого не тямлю?

igor911 
Відео Гуртом
Відео Гуртом


З нами з: 18.01.08
Востаннє: 10.12.16
Повідомлень: 5217

2016-07-05 22:10  
bohdk, звичайно HD, але лише з укр.субтитрами стали переносити сюди незалежно від якості.
bohdk 
Відео Гуртом - субтитрування
Відео Гуртом - субтитрування


З нами з: 23.10.09
Востаннє: 10.12.16
Повідомлень: 561

2016-07-05 22:22  
igor911
Ну, ОК. А чому не в прикріплене? Це ж авторська робота ivan vyrvyvuho. А роздаю я на прохання автора, бо від мене діаметр труби більший.
До речі, велика подяка за розвиток теми та безкорисливу самовіддачу вищезгаданому ivan vyrvyvuho. Скидаю капелюха.

igor911 
Відео Гуртом
Відео Гуртом


З нами з: 18.01.08
Востаннє: 10.12.16
Повідомлень: 5217

2016-07-05 22:25  
bohdk, перевірив і позолотив у своєму розділі, а прикріпити, нажаль, вже не зміг, бо я не модерую цей розділ. Зараз напишу іншим модераторам.
Wysnewetskyj 
Новенький


З нами з: 30.05.16
Востаннє: 10.12.16
Повідомлень: 13

2016-07-06 06:40  
Як я чекав це продовження! Нарешті!
А панове зі студії Гуртом будуть робити озвучення? )

igor911 
Відео Гуртом
Відео Гуртом


З нами з: 18.01.08
Востаннє: 10.12.16
Повідомлень: 5217

2016-07-06 10:11  
Wysnewetskyj, логічно запитати про це в них http://toloka.to/u616718

Додано через 3 хвилини 34 секунди:

але враховуючи, що вони озвучують багато серіалів одночасно, то навряд.
Але є інші студії та проекти озвучення - Стругачка, Гвін та Маслінка, НезупиняйПродакшн...

Додано через 2 години 48 хвилин 55 секунд:


hetzendorf 
Свій


З нами з: 23.07.15
Востаннє: 10.12.16
Повідомлень: 149

2016-07-06 16:55  
igor911 написано:
Але є інші студії та проекти озвучення - Стругачка, Гвін та Маслінка, НезупиняйПродакшн...

Аби не UkrDub, як попереднью частину. Просто огидно слухати ту англізацію власних імен, недоречних серів, перів, лордів та іншу нісенітницю.

igor911 
Відео Гуртом
Відео Гуртом


З нами з: 18.01.08
Востаннє: 10.12.16
Повідомлень: 5217

2016-07-06 17:00  
hetzendorf, нормальна ЛЮБИТЕЛЬСЬКА студія, шкода, давненько нічого від них не бачив.
hetzendorf 
Свій


З нами з: 23.07.15
Востаннє: 10.12.16
Повідомлень: 149

2016-07-18 01:15  
Подивився. Щось зовсім ніяке на відміну від попереднього. 2/10
Mitya_GUNNER 
Свій


З нами з: 15.10.12
Востаннє: 10.12.16
Повідомлень: 135

2016-08-27 22:45  
Чудове продовження. 7 з 10.
Premer_Joker 
Частий відвідувач


З нами з: 22.01.13
Востаннє: 10.12.16
Повідомлень: 26

2016-09-29 19:53  
Дякую! Нарешті дочекався...
yasya_03 
Новенький


З нами з: 03.10.16
Востаннє: 17.11.16
Повідомлень: 1

2016-10-03 23:36  
не виходить скачати(((( так хочу подивитись!

Додано через 5 хвилин 39 секунд:

Видає шось про завеликий розмір файлу і обмеження файлової системи... Шо маю з тим робити? Народець, help me-help me, пліііззз...))

igor911 
Відео Гуртом
Відео Гуртом


З нами з: 18.01.08
Востаннє: 10.12.16
Повідомлень: 5217

2016-10-04 00:40  
yasya_03, проблема в тому, що ти намагаєшся скачати файл > 5 Гб на диск з файловою системою FAT32, яка підтримує файли лише ДО 4 Гб. Спробуй завантажити на інший диск, відформатований у файловій системі NTFS або сконвертуй диск з FAT32 у NTFS.
taniachikhrai 
Новенький


З нами з: 11.01.14
Востаннє: 13.11.16
Повідомлень: 2

2016-11-13 23:50  
у мене не йде звук. взагалі ніяких шумів навіть. що не так може бути?
igor911 
Відео Гуртом
Відео Гуртом


З нами з: 18.01.08
Востаннє: 10.12.16
Повідомлень: 5217

2016-11-14 08:31  
taniachikhrai, твій програвач не підтримує формат звуку . Якщо це трапилось на компі - встанови кодеки - K-Lite Codec Pack.
Ваш часовий пояс: GMT + 2 Години

Нова тема   Відповісти