Завантажити та скачати торренти українською


Загадкова справа Бенджаміна Баттона / The Curious Case of Benjamin Button (2008) 720p-mini

Нові коментарі

Нова тема   Відповісти
Автор Повідомлення
Drool 
VIP


З нами з: 17.04.10
Востаннє: 07.12.16
Повідомлень: 1264

2016-07-05 16:01  
Загадкова справа Бенджаміна Баттона / The Curious Case of Benjamin Button (2008) 720p-mini

Жанр: драма, фентезі, мелодрама
Країна: США



Кінокомпанія: Paramount Pictures, The Kennedy/Marshall Company, Warner Bros. Pictures Co.
Режисер: Девід Фінчер
Актори: Бред Пітт, Кейт Бланшетт, Джулія Ормонд, Тільда Суінтон, Джейсон Флемінг, Тараджи П. Хенсон

Сюжет:
Фільм про чоловіка, який народився у віці 80 -ти років, а потім... почав молодіти. Ця людина, як і кожен з нас, не міг зупинити час. Його шлях в ХХI століття, що бере свій початок в Новому Орлеані в 1918 -му році в самому кінці Першої Світової війни, буде настільки незвичайний, що навряд чи міг мати місце в житті кого-небудь іншого. Фільм оповідає про долю унікальної людини, про людей і події, що чекають його попереду, про любов, яку він знайде і втратить, про радощі життя і смутку втрат і про те, що залишається з нами поза часом.


Тривалість: 02:46:03
Якість: 720p-mini
Відео:
кодек:
розмір кадру: 1280x534
бітрейт: 1868 кб/с
CRF: 20.0

Аудіо:
мова: українська
переклад: професійний дубльований
кодек: 5.1
бітрейт: 384 кб/с

Джерело озвучення:


Субтитри:
мова: українська (форсовані)
тип: програмні (м'які)
формат: *.srt
MediaInfo
General
Unique ID : 21965541362901493788396399665040696169 (0x108668CD7DC7B957B96DE9F516C5A369)
Complete name : /mnt/disk_d/Video/The.Curious.Case.of.Benjamin.Button.2008.Ukr.Dub..720p-mini.mkv
Format : Matroska
Format version : Version 4 / Version 2
File size : 2.67 GiB
Duration : 2h 46mn
Overall bit rate : 2 299 Kbps
Movie name : Загадкова справа Бенджаміна Баттона / The Curious Case of Benjamin Button (2008) 720p-mini | video by Leonardo
Encoded date : UTC 2016-07-05 07:37:04
Writing application : mkvmerge v9.2.0 ('Photograph') 64bit
Writing library : libebml v1.3.3 + libmatroska v1.4.4
Attachements : cover.jpg
DURATION : 02:08:24.154000000
NUMBER_OF_FRAMES : 8
NUMBER_OF_BYTES : 278
_STATISTICS_WRITING_APP : mkvmerge v9.2.0 ('Photograph') 64bit
_STATISTICS_WRITING_DATE_UTC : 2016-07-05 07:37:04
_STATISTICS_TAGS : BPS DURATION NUMBER_OF_FRAMES NUMBER_OF_BYTES

Video
ID : 1
Format : AVC
Format/Info : Advanced Video Codec
Format profile : [email protected]
Format settings, CABAC : Yes
Format settings, ReFrames : 9 frames
Codec ID : V_MPEG4/ISO/AVC
Duration : 2h 46mn
Bit rate : 1 870 Kbps
Width : 1 280 pixels
Height : 534 pixels
Display aspect ratio : 2.40:1
Frame rate mode : Constant
Frame rate : 23.976 fps
Color space : YUV
Chroma subsampling : 4:2:0
Bit depth : 8 bits
Scan type : Progressive
Bits/(Pixel*Frame) : 0.114
Stream size : 2.17 GiB (81%)
Title : Загадкова справа Бенджаміна Баттона / The Curious Case of Benjamin Button (2008) 720p-mini | video by Leonardo
Writing library : core 125 r2208 d9d2288
Encoding settings : cabac=1 / ref=9 / deblock=1:-3:-3 / analyse=0x3:0x133 / me=umh / subme=11 / psy=1 / psy_rd=1.00:0.20 / mixed_ref=1 / me_range=32 / chroma_me=1 / trellis=2 / 8x8dct=1 / cqm=0 / deadzone=21,11 / fast_pskip=0 / chroma_qp_offset=-3 / threads=12 / lookahead_threads=2 / sliced_threads=0 / nr=0 / decimate=1 / interlaced=0 / bluray_compat=0 / constrained_intra=0 / bframes=12 / b_pyramid=2 / b_adapt=2 / b_bias=0 / direct=1 / weightb=1 / open_gop=0 / weightp=2 / keyint=250 / keyint_min=23 / scenecut=40 / intra_refresh=0 / rc=crf / mbtree=0 / crf=20.0 / qcomp=0.60 / qpmin=0 / qpmax=69 / qpstep=4 / ip_ratio=1.10 / pb_ratio=1.10 / aq=1:1.00
Default : Yes
Forced : Yes
DURATION : 02:46:02.995000000
NUMBER_OF_FRAMES : 238873
NUMBER_OF_BYTES : 2382886751
_STATISTICS_WRITING_APP : mkvmerge v9.2.0 ('Photograph') 64bit
_STATISTICS_WRITING_DATE_UTC : 2016-07-05 07:37:04
_STATISTICS_TAGS : BPS DURATION NUMBER_OF_FRAMES NUMBER_OF_BYTES

Audio
ID : 2
Format : AC-3
Format/Info : Audio Coding 3
Mode extension : CM (complete main)
Format settings, Endianness : Big
Codec ID : A_AC3
Duration : 2h 46mn
Bit rate mode : Constant
Bit rate : 384 Kbps
Channel(s) : 6 channels
Channel positions : Front: L C R, Side: L R, LFE
Sampling rate : 48.0 KHz
Compression mode : Lossy
Stream size : 456 MiB (17%)
Title : Рідна мова [, 5.1 ch., 384 kbps]
Language : Ukrainian
Default : Yes
Forced : Yes

Text
ID : 3
Format : UTF-8
Codec ID : S_TEXT/UTF8
Codec ID/Info : UTF-8 Plain Text
Title : Українські (форсовані)
Language : Ukrainian
Default : Yes
Forced : Yes
Скріншоти




Джерело відеоряду:
Особиста оцінка: 10 - без зайвих вагань рекомендую всім!


 Трекер:    Зареєстрований   

Завантажити / скачати фільм українською



відео для новачків



 Зареєстрований:   2016-07-05 16:01
 Розмір:   2.67 GB 
 Оцінка фільму:   9.7/10 (Голосів: 9)
   
Ваш часовий пояс: GMT + 2 Години

Нова тема   Відповісти