Завантажити та скачати торренти українською


Чорний яструб / Падіння чорного яструба / Black Hawk Down (2001) 720p 3xUkr/Eng | Sub Eng

Нові коментарі

Нова тема   Відповісти
Автор Повідомлення
Anonymous 







2016-07-05 11:34  
Чорний яструб / Падіння чорного яструба / Black Hawk Down (2001) 720p 3xUkr/Eng | Sub Eng

Чорний яструб / Падіння чорного яструба / Black Hawk Down (2001) 720p 3xUkr/Eng | Sub Eng


Два Оскари за найкращий звук та найкращий монтаж


Жанр: бойовик, драма, трилер, військовий, історія
Країна: США



Кінокомпанія: Revolution Studios, Jerry Bruckheimer Films, Scott Free Productions
Режисер: Рідлі Скотт / Ridley Scott
Композитор: Ганс Зіммер / Hans Zimmer
Актори: Джош Гартнет / Josh Hartnett, Юен МакҐреґор / Ewan McGregor, Том Сайзмор / Tom Sizemore, Ерік Бана / Eric Bana, Вільям Фіхтнер / William Fichtner, Юен Бремнер / Ewen Bremner, Сем Шепард / Sam Shepard, Гебріель Коссес / Gabriel Casseus, Кім Коутс / Kim Coates, Г’ю Денсі / Hugh Dancy та інші

Сюжет:
1993 рік, Сомалі, громадянська війна. Війська генерала Айдіда контролюють столицю Могадішо, мародерять гуманітарну допомогу від ООН, що призводить до гуманітарної катастрофи серед цивільного населення. Уряд США залучає загони спецпризначенців Дельта та рейнджерів до операції по захопленню генерала, плануючи вкластися в 45 хвилин. Але реальність міняє їх плани і коротка місія перетворюється на криваву бійню на години з десятками загиблих і поранених...


Рейтинг MPAA: R - особам до 17 років обов'язкова присутність батьків або дорослого опікуна
Вікова категорія: 16+

Тривалість: 02:23:42
Якість: 720p (ріп з якіснішого Nordic трансфера)
Відео:
кодек:
розмір кадру: 1280 х 536
бітрейт: 6800 Кбіт/с

Аудіо # 1:
мова: українська
переклад: багатоголосий закадровий | Так Треба Продакшн
кодек: 2.0
бітрейт: 192 Кбіт/с
назву озвучено: "Падіння чорного яструба"

Аудіо # 2:
мова: українська
переклад: двоголосий закадровий
кодек: 2/0
бітрейт: 192 Кбіт/с
назву озвучено: "Падіння чорного яструба"
ролі озвучили: Олег Лепенець, Андрій Твердак
примітка: наприкінці 2 хв. озвучення вставлено з доріжки НТН, бо 2+2 їх обрізали і не показали

Аудіо # 3: та
мова: українська
переклад: багатоголосий закадровий
кодек: 2.0
бітрейт: 192 Кбіт/с
назву озвучено: "Чорний яструб"
ролі озвучили: Сем Шепард — Олег Стальчук, Джош Гартнет — Анатолій Пашнін, Анатолій Зіновенко

Аудіо # 4:
мова: англійська
переклад: оригінал
кодек: 5.1
бітрейт: 1509 Кбіт/с

Субтитри:
мова: англійська
тип: програмні (м'які)
формат: *.srt
MediaInfo
Код:
Complete name               : Black Hawk Down (2001) [3xUkr,Eng sub.Eng] 720p [Hurtom].mkv
Format                      : Matroska
Format version              : Version 4 / Version 2
File size                   : 8.93 GiB
Duration                    : 2 h 24 min
Overall bit rate            : 8 856 kb/s
Movie name                  : Чорний яструб / Падіння чорного яструба / Black Hawk Down (2001) [3xUkr,Eng sub.Eng] 720p [Hurtom & HDClub] by igor911
Encoded date                : UTC 2016-07-27 11:14:00
Writing application         : mkvmerge v9.3.1 ('Mask Machine') 64bit
Writing library             : libebml v1.3.4 + libmatroska v1.4.5
Cover                       : Yes
Attachments                 : cover.jpg

Video
ID                          : 1
Format                      : AVC
Format/Info                 : Advanced Video Codec
Format profile              : [email protected]
Format settings, CABAC      : Yes
Format settings, ReFrames   : 12 frames
Codec ID                    : V_MPEG4/ISO/AVC
Duration                    : 2 h 23 min
Bit rate                    : 6 800 kb/s
Width                       : 1 280 pixels
Height                      : 536 pixels
Display aspect ratio        : 2.40:1
Frame rate mode             : Constant
Frame rate                  : 23.976 (23976/1000) FPS
Color space                 : YUV
Chroma subsampling          : 4:2:0
Bit depth                   : 8 bits
Scan type                   : Progressive
Bits/(Pixel*Frame)          : 0.413
Stream size                 : 6.82 GiB (76%)
Title                       : Чорний яструб / Падіння чорного яструба / Black Hawk Down (2001) 720p [HDClub-EncoderN1]
Writing library             : core 119 r2106 07efeb4
Encoding settings           : cabac=1 / ref=12 / deblock=1:-2:-2 / analyse=0x3:0x113 / me=umh / subme=10 / psy=1 / psy_rd=1.00:0.00 / mixed_ref=1 / me_range=48 / chroma_me=1 / trellis=2 / 8x8dct=1 / cqm=0 / deadzone=21,11 / fast_pskip=0 / chroma_qp_offset=-2 / threads=6 / sliced_threads=0 / nr=0 / decimate=1 / interlaced=0 / bluray_compat=0 / constrained_intra=0 / bframes=8 / b_pyramid=2 / b_adapt=2 / b_bias=0 / direct=3 / weightb=1 / open_gop=0 / weightp=2 / keyint=240 / keyint_min=24 / scenecut=40 / intra_refresh=0 / rc_lookahead=80 / rc=2pass / mbtree=1 / bitrate=6800 / ratetol=1.0 / qcomp=0.60 / qpmin=0 / qpmax=69 / qpstep=4 / cplxblur=20.0 / qblur=0.5 / ip_ratio=1.40 / aq=1:1.00
Language                    : English
Default                     : Yes
Forced                      : No

Audio #1
ID                          : 2
Format                      : AC-3
Format/Info                 : Audio Coding 3
Mode extension              : CM (complete main)
Format settings, Endianness : Big
Codec ID                    : A_AC3
Duration                    : 2 h 23 min
Bit rate mode               : Constant
Bit rate                    : 192 kb/s
Channel(s)                  : 2 channels
Channel positions           : Front: L R
Sampling rate               : 48.0 kHz
Frame rate                  : 31.250 FPS (1536 spf)
Compression mode            : Lossy
Stream size                 : 197 MiB (2%)
Title                       : MVO [AMC,TTP] 2.0 192 kbps [Hurtom-taraskill1,slavik_v_z]
Language                    : Ukrainian
Default                     : Yes
Forced                      : No

Audio #2
ID                          : 3
Format                      : AC-3
Format/Info                 : Audio Coding 3
Mode extension              : CM (complete main)
Format settings, Endianness : Big
Codec ID                    : A_AC3
Duration                    : 2 h 23 min
Bit rate mode               : Constant
Bit rate                    : 192 kb/s
Channel(s)                  : 2 channels
Channel positions           : Front: L R
Sampling rate               : 48.0 kHz
Frame rate                  : 31.250 FPS (1536 spf)
Compression mode            : Lossy
Stream size                 : 197 MiB (2%)
Title                       : DVO [2+2] 2.0 192 kbps [Hurtom-taraskill1]
Language                    : Ukrainian
Default                     : No
Forced                      : No

Audio #3
ID                          : 4
Format                      : AC-3
Format/Info                 : Audio Coding 3
Mode extension              : CM (complete main)
Format settings, Endianness : Big
Codec ID                    : A_AC3
Duration                    : 2 h 23 min
Bit rate mode               : Constant
Bit rate                    : 192 kb/s
Channel(s)                  : 2 channels
Channel positions           : Front: L R
Sampling rate               : 48.0 kHz
Frame rate                  : 31.250 FPS (1536 spf)
Compression mode            : Lossy
Stream size                 : 197 MiB (2%)
Title                       : MVO [ICTV,NTN] 2.0 192 kbps [Hurtom-taraskill1]
Language                    : Ukrainian
Default                     : No
Forced                      : No

Audio #4
ID                          : 5
Format                      :
Format/Info                 : Digital Theater Systems
Mode                        : 16
Format settings, Endianness : Big
Codec ID                    : A_DTS
Duration                    : 2 h 24 min
Bit rate mode               : Constant
Bit rate                    : 1 509 kb/s
Channel(s)                  : 6 channels
Channel positions           : Front: L C R, Side: L R, LFE
Sampling rate               : 48.0 kHz
Frame rate                  : 93.750 FPS (512 spf)
Bit depth                   : 16 bits
Compression mode            : Lossy
Stream size                 : 1.52 GiB (17%)
Title                       : Original, 5.1 1510 kbps
Language                    : English
Default                     : No
Forced                      : No

Text
ID                          : 6
Format                      : UTF-8
Codec ID                    : S_TEXT/UTF8
Codec ID/Info               : UTF-8 Plain Text
Duration                    : 2 h 12 min
Bit rate                    : 47 b/s
Count of elements           : 1401
Stream size                 : 45.6 KiB (0%)
Title                       : Full
Language                    : English
Default                     : No
Forced                      : No


Джерела та подяки: &
українські доріжки - 1) slavik_v_z (запис з ТБ), taraskill1 (зведення); 2) karvai0 (запис з ТБ), taraskill1, Romario_O (зведення); 3) Romario_O (запис з ТБ, зведення), taraskill1 (зведення); українізований постер - Musketeer (всі - Гуртом).

Особиста оцінка: 8 - мені сподобалося

Увага! Реліз оновлено - додано озвучення з AMC, замінено звукові доріжки 2+2 та ICTV/НТН якіснішими
Прохання перезавантажити та підтримати реліз!


ЗАЛИШАЙТЕСЬ ЯКОМОГА ДОВШЕ НА РОЗДАЧІ!
СКАЧАВ САМ - ДАЙ СКАЧАТИ ІНШИМ


Срібний реліз (на рейтинг впливає 50% завантаженого)
 Трекер:    Зареєстрований   

Завантажити / скачати фільм українською



відео для новачків



 Зареєстрований:   2016-07-27 15:02
 Розмір:   8.93 GB 
 Оцінка фільму:   6.7/10 (Голосів: 28)
   
Anonymous 







2016-07-27 15:05  
Реліз оновлено - додано озвучення з AMC, замінено звукові доріжки 2+2 та ICTV/НТН якіснішими.
Прохання перезавантажити та підтримати реліз!

famous37 
Відео Гуртом - фільмокрай
Відео Гуртом - фільмокрай


З нами з: 16.11.08
Востаннє: 05.12.16
Повідомлень: 545

2016-07-28 20:51  
Привіт! Коли очікувати 1080p?
Anonymous 







2016-07-28 20:56  
famous37, я не планував 1080р робити.
Ваш часовий пояс: GMT + 2 Години

Нова тема   Відповісти