Завантажити та скачати торренти українською


Вільне падіння / Freier Fall (2013) Ger | sub Ukr

Нові коментарі

Нова тема   Відповісти
Останній раз роздавалося antusyrzhuk (2016-12-05)
Автор Повідомлення
antusyrzhuk 
Свій


З нами з: 09.06.09
Востаннє: 19.11.16
Повідомлень: 145

2016-07-02 12:11  
Вільне падіння / Freier Fall (2013) Ger | sub Ukr

Вільне падіння / Freier Fall (2013) Ger | sub Ukr


Жанр: драма
Країна: Німеччина



Кінокомпанія: Kurhaus Production, Südwestrundfunk (SWR)
Режисер: Стефан Лакант (Stephan Lacant)
Актори: Ханно Коффлер (Hanno Koffler), Макс Рімельт (Max Riemelt), Аттила Борлан (Attila Borlan), Катаріна Шюттлер (Katharina Schüttler), Стефані Шьонфельд (Stephanie Schönfeld) та ін.

Сюжет:
Перед Марком постають непогані перспективи. У нього є сім'я і багатообіцяюча кар'єра поліцейського. Здається, все склалося.

Під час регулярних пробіжок зі своїм колегою він відчуває цю раніше невідому легкість стосунків з чоловіком - він закохується. Розриваючись між сім'єю і коханням до Кая, Марк втрачає контроль над тим, що відбувається. Раптово його життя знаходиться у вільному падінні. Стає зрозумілим, що як би Марк не старався, він не зможе догодити всім. А тим більше собі.



Тривалість: 01:41:01
Якість:
Відео:
кодек:
розмір кадру: 1280 х 688
бітрейт: 2104 кб/с

Аудіо:
мова: німецька
переклад: оригінал
кодек: 5.1
бітрейт: 384 кб/с

Субтитри:
мова: українська
тип: програмні (м'які)
формат: *.srt
переклад власний
Скріншоти



MediaInfo
Format : Matroska
Format version : Version 4 / Version 2
File size : 1.79 GiB
Duration : 1h 41mn
Overall bit rate : 2 538 Kbps
Movie name : Freier Fall*2013 /antusyrzhuk
Encoded date : UTC 2015-06-28 18:54:25
Writing application : mkvmerge v6.5.0 ('Isn't she lovely') built on Oct 20 2013 12:50:05
Writing library : libebml v1.3.0 + libmatroska v1.4.1

Video
ID : 1
Format : AVC
Format/Info : Advanced Video Codec
Format profile : [email protected]
Format settings, CABAC : Yes
Format settings, ReFrames : 5 frames
Codec ID : V_MPEG4/ISO/AVC
Duration : 1h 41mn
Bit rate : 2 104 Kbps
Width : 1 280 pixels
Height : 688 pixels
Display aspect ratio : 1.85:1
Frame rate mode : Constant
Frame rate : 24.000 fps
Color space : YUV
Chroma subsampling : 4:2:0
Bit depth : 8 bits
Scan type : Progressive
Bits/(Pixel*Frame) : 0.100
Stream size : 1.48 GiB (83%)
Writing library : core 140 r2377 1ca7bb9
Encoding settings : cabac=1 / ref=5 / deblock=1:-1:-1 / analyse=0x3:0x133 / me=umh / subme=7 / psy=1 / psy_rd=1.00:0.15 / mixed_ref=1 / me_range=16 / chroma_me=1 / trellis=1 / 8x8dct=1 / cqm=0 / deadzone=21,11 / fast_pskip=0 / chroma_qp_offset=-3 / threads=18 / lookahead_threads=3 / sliced_threads=0 / nr=0 / decimate=1 / interlaced=0 / bluray_compat=0 / constrained_intra=0 / bframes=3 / b_pyramid=2 / b_adapt=1 / b_bias=0 / direct=3 / weightb=1 / open_gop=0 / weightp=2 / keyint=240 / keyint_min=24 / scenecut=40 / intra_refresh=0 / rc_lookahead=40 / rc=crf / mbtree=1 / crf=20.0 / qcomp=0.60 / qpmin=10 / qpmax=69 / qpstep=4 / ip_ratio=1.40 / aq=1:1.00
Language : English
Default : Yes
Forced : No

Audio
ID : 2
Format : AC-3
Format/Info : Audio Coding 3
Mode extension : CM (complete main)
Format settings, Endianness : Big
Codec ID : A_AC3
Duration : 1h 41mn
Bit rate mode : Constant
Bit rate : 384 Kbps
Channel(s) : 6 channels
Channel positions : Front: L C R, Side: L R, LFE
Sampling rate : 48.0 KHz
Bit depth : 16 bits
Compression mode : Lossy
Stream size : 277 MiB (15%)
Language : German
Default : Yes
Forced : No

Text
ID : 3
Format : UTF-8
Codec ID : S_TEXT/UTF8
Codec ID/Info : UTF-8 Plain Text
Language : Ukrainian
Default : Yes
Forced : No
Джерело:
Особиста оцінка: 10 - без зайвих вагань рекомендую всім!


Золотий реліз (завантажене не впливає на рейтинг)
 Трекер:    Зареєстрований   

Завантажити / скачати фільм українською



відео для новачків



 Зареєстрований:   2016-07-02 12:11
 Розмір:   1.79 GB 
 Оцінка фільму:   6.8/10 (Голосів: 17)
   
hetzendorf 
Свій


З нами з: 23.07.15
Востаннє: 10.12.16
Повідомлень: 149

2016-07-02 15:35  
Чергова Горбата гора

380983801076 
Свій


З нами з: 30.03.12
Востаннє: 09.12.16
Повідомлень: 80

2016-07-02 16:45  
Ой людоньки. Коли вже в Україні заборонять це лайно.
VitNi 
Частий відвідувач


З нами з: 05.05.12
Востаннє: 09.12.16
Повідомлень: 39

2016-07-02 17:14  
380983801076 написано:
Ой людоньки. Коли вже в Україні заборонять це лайно.


Забороняти - неправильно.
А от коли вже поменшає збоченців які розповсюджують це лайно?

bohdk 
Відео Гуртом - субтитрування
Відео Гуртом - субтитрування


З нами з: 23.10.09
Востаннє: 09.12.16
Повідомлень: 561

2016-07-03 08:05  
antusyrzhuk
Дітки є? А тепер уяви, що котресь стає "отаким". Поменшало "толерантності"?
Ні, я все розумію. Рівні права, євросоюз, бла-бла-бла. Але давайте відхилення не будемо вважати нормою. Тим більш пропагувати його. Нехай собі варяться в своєму соці.
Справа в тому, що їм недостатньо бути такими. Вони обов'язково хочуть не лише виправдати себе - з цим ще можна, та й, мабуть, необхідно погодитись - їм потрібно затягнути до себе ще когось, врешті-решт, ввести це в ранг норми. Чи не забагато відхилень ми зараз починаємо сприймати, ба, навіть вводити в наше життя?
Я висловив лише свою суб'єктивну думку. І до подальших суперечок чи обговорень вдаватися не буду. Dixi.

Maters 
VIP


З нами з: 27.03.12
Востаннє: 08.12.16
Повідомлень: 1162

2016-07-03 21:37  
bohdk
підтримую

pvm 
Свій


З нами з: 05.03.10
Востаннє: 09.12.16
Повідомлень: 138

2016-07-09 18:59  
imdb: 7,6
toloka: 6,4
antusyrzhuk: Особиста оцінка: 10 - без зайвих вагань рекомендую всім!

bohdk, а Ви кажете "дітки".
Гидко від такої дійсності.

Хоча це все має ще один аспект. Намагання зменшити швидкість приросту населення на землі.

ra29 
Новенький


З нами з: 20.07.16
Востаннє: 24.10.16
Повідомлень: 2

2016-07-20 17:12  
Між іншим, дуже цікаве кіно, зовсім невластиве для німецького кінематографа. Глибоке, багатогранне...
І воно не про геїв.
Воно про кохання, брехню і їх наслідки. Чоловік мое зобов’язання перед громадянською дружиною (чому нікого не непокоїть народження дитини поза шлюбом? Це ж кошмар!!!!))))) і ненародженою дитиною, але закохується у іншу людину. З Каєм він щаслиіий, а життя з Бетіною поступово починає його душити. Ну і як догодити усім, якщо ставлення оточуючих наступне: "не маю нічого проти геїв, поки це не стосується особисто мене".
До речі, в тому числі і завдяки таким "друзякам", як bohdk, долі Марка та Кая складися саме так.
Актори грають неперевершено!

Дуже вдячна antusyrzhuk за розміщенний матеріал. Я дивилась фільм російською ( а в них, до речі, існує поняття пропаганди гомосексуалізму), і з задоволенням подивлюся німецькою, але з рідними українськими титрами.

Рекомендую цей фільм усім, кому цікаві картини про людські почуття без додавання мелодрами та пафосу. 10 з 10!

Форкуш 
VIP


З нами з: 03.02.10
Востаннє: 09.12.16
Повідомлень: 1545

2016-07-27 21:28  
antusyrzhuk
за всі релізи респект і уважуха!!!

bullshit detector -wa51 
Новенький


З нами з: 02.10.16
Востаннє: 27.11.16
Повідомлень: 5

2016-10-03 15:04  
то троль. troll factory

загугли Гібридна війна
Hybrid
warfare

п'ята колона
russian hybrid warfare and other dark arts
Cyber-war
Modern Warfare
Cyberwarfare in Russia
Cyberwarfare
christianity
pidar milonov
putin homo troll army
55 Savushkina Street
і тд про фсб\кдб\тролів\маніпуляції\інформаційні пропагандистські війни

+ зашорені злі провінційні придурки, "корисні ідіоти", ретранслятори (вони не
розуміють про що мова, але колись почуте видають за свою думку)
вони і є цільова аудиторія
акція під 'Боже, царя...'<br>
а ви їм про охи гімназистки. <br>
у bohdk складний життєвий досвід.<br>
для нього дитяче ліжко 'бук'
враження, ніби люди не вчились в школі, не чули про дарвінізм, гени і тд.
і спроби з часів спарта v афіни (в 'західній культурі') щось утнути
і ефект завжди був зворотній.
хоча для мене особисто тема не цікава. в житті я бачив
гомосексуаліста (точніше бі-) багато років тому, і він був
переконаний що він "нормальний"(гетеро-), до мене ніхто ніколи не
чіплявся, не"затягнути до себе". мабуть зі мною щось не те)) чи
навпаки?
але мене цікавить кіно.
я його подивився. і розумію так:
такий собі трикутник. досить шаблонно зображено. 3 "герої", гомо-, бі- і латентний гомо-.
Перші двоє "експерементували" в академії (секс-наркотики-рейв). Потім розбіглись. Через кілька років "згадали юність". Латентний гомо- їх за це відлупцював. Від непевного бі- пішла дружина. І він натхненно побіг в неясне майбутнє. Всі 3 "герої" егоістичні мудаки. IMHO.
це відрізняється від того, що я читав у відгуках на IMDB і того, що побачила ра29<br>
Lust for Life

Ваш часовий пояс: GMT + 2 Години

Нова тема   Відповісти