Завантажити та скачати торренти українською


Злочинець / Criminal (2016) 1080p Ukr/Eng | Sub Eng

Нові коментарі

Нова тема   Відповісти
Автор Повідомлення
Anonymous 







2016-06-25 21:18  
Злочинець / Criminal (2016) 1080p Ukr/Eng | Sub Eng

Злочинець / Criminal (2016) 1080p Ukr/Eng | Sub Eng

Альтернативний постер


повнорозмірні зображення відкриються по кліку (з натиснутим CTRL чи кліком середньою кнопкою мишки - у новій вкладці)


Жанр: бойовик, драма, кримінальний, фантастика
Країна: США, Велика Британія



Кінокомпанія: Lionsgate, Millennium Films, Campbell Grobman Films, BenderSpink
Режисер: Аріель Вромен / Ariel Vromen
Актори: Раян Рейнольдс / Ryan Reynolds, Кевін Костнер / Kevin Costner, Ґері Олдмен / Gary Oldman, Еліс Іве / Alice Eve, Ґал Ґадот / Gal Gadot, Майкл Пітт / Michael Pitt, Томмі Лі Джонс / Tommy Lee Jones, Скотт Едкінс / Scott Adkins та інші

Сюжет:
В останній відчайдушній спробі зупинити катастрофу світового масштабу ґенетики здійснюють неймовірну операцію із вживлення спогадів і умінь загиблого оперативника ЦРУ в тіло небезпечного ув'язненого з надією, що той доведе до кінця перервану місію агента.

Український трейлер:


Рейтинг MPAA: R - особам до 17 років обов'язкова присутність батьків або дорослого опікуна
Вікова категорія: 16+

Тривалість: 01:53:34
Якість: 1080p
Відео:
кодек:
розмір кадру: 1918 х 804
бітрейт: 15,9 Мбіт/с [crf=15.8]

Аудіо # 1:
мова: українська
переклад: професійний дубльований
кодек: 2.0
бітрейт: 192 Кбіт/с

Аудіо # 2:
мова: англійська
переклад: оригінал
кодек: 5.1
бітрейт: 1509 Кбіт/с

Субтитри #1-2:
мова: англійська (повні, SDH)
тип: програмні (м'які)
формат: *.srt

Збережено оригінальні розділи, як на Blu-ray.
MediaInfo
Код:
Complete name               : Criminal (2016) [Ukr,Eng sub.Eng] 1080p [Hurtom].mkv
Format                      : Matroska
Format version              : Version 4 / Version 2
File size                   : 14.0 GiB
Duration                    : 1 h 53 min
Overall bit rate            : 17.6 Mb/s
Movie name                  : Злочинець / Criminal (2016) [Ukr,Eng] 1080p [Hurtom] by igor911
Encoded date                : UTC 2016-07-15 23:16:07
Writing application         : mkvmerge v9.3.1 ('Mask Machine') 64bit
Writing library             : libebml v1.3.4 + libmatroska v1.4.5
Cover                       : Yes
Attachments                 : cover.jpg

Video
ID                          : 1
Format                      : AVC
Format/Info                 : Advanced Video Codec
Format profile              : [email protected]
Format settings, CABAC      : Yes
Format settings, ReFrames   : 5 frames
Codec ID                    : V_MPEG4/ISO/AVC
Duration                    : 1 h 53 min
Bit rate                    : 15.9 Mb/s
Width                       : 1 918 pixels
Height                      : 804 pixels
Display aspect ratio        : 2.40:1
Frame rate mode             : Constant
Frame rate                  : 23.976 (24000/1001) FPS
Color space                 : YUV
Chroma subsampling          : 4:2:0
Bit depth                   : 8 bits
Scan type                   : Progressive
Bits/(Pixel*Frame)          : 0.431
Stream size                 : 12.6 GiB (90%)
Title                       : Злочинець / Criminal (2016) 1080p [ExKinoRay]
Writing library             : core 146 r2538 121396c
Encoding settings           : cabac=1 / ref=5 / deblock=1:-3:-3 / analyse=0x3:0x133 / me=tesa / subme=11 / psy=1 / psy_rd=1.04:0.00 / mixed_ref=1 / me_range=32 / chroma_me=1 / trellis=2 / 8x8dct=1 / cqm=0 / deadzone=21,11 / fast_pskip=0 / chroma_qp_offset=-2 / threads=60 / lookahead_threads=6 / sliced_threads=0 / nr=0 / decimate=0 / interlaced=0 / bluray_compat=0 / constrained_intra=0 / bframes=11 / b_pyramid=2 / b_adapt=2 / b_bias=0 / direct=3 / weightb=1 / open_gop=0 / weightp=2 / keyint=240 / keyint_min=23 / scenecut=40 / intra_refresh=0 / rc_lookahead=150 / rc=crf / mbtree=0 / crf=15.8 / qcomp=0.60 / qpmin=0 / qpmax=69 / qpstep=4 / vbv_maxrate=62500 / vbv_bufsize=78125 / crf_max=0.0 / nal_hrd=none / filler=0 / ip_ratio=1.40 / pb_ratio=1.30 / aq=1:0.80
Language                    : English
Default                     : Yes
Forced                      : No

Audio #1
ID                          : 2
Format                      : AC-3
Format/Info                 : Audio Coding 3
Mode extension              : CM (complete main)
Format settings, Endianness : Big
Codec ID                    : A_AC3
Duration                    : 1 h 53 min
Bit rate mode               : Constant
Bit rate                    : 192 kb/s
Channel(s)                  : 2 channels
Channel positions           : Front: L R
Sampling rate               : 48.0 kHz
Frame rate                  : 31.250 FPS (1536 spf)
Compression mode            : Lossy
Stream size                 : 156 MiB (1%)
Title                       : Dub, 2.0 [stereo] 192 kbps [Hurtom-Hanway]
Language                    : Ukrainian
Default                     : Yes
Forced                      : No

Audio #2
ID                          : 3
Format                      :
Format/Info                 : Digital Theater Systems
Mode                        : 16
Format settings, Endianness : Big
Codec ID                    : A_DTS
Duration                    : 1 h 53 min
Bit rate mode               : Constant
Bit rate                    : 1 509 kb/s
Channel(s)                  : 6 channels
Channel positions           : Front: L C R, Side: L R, LFE
Sampling rate               : 48.0 kHz
Frame rate                  : 93.750 FPS (512 spf)
Bit depth                   : 24 bits
Compression mode            : Lossy
Stream size                 : 1.20 GiB (9%)
Title                       : Original, 5.1 1509 kbps
Language                    : English
Default                     : No
Forced                      : No

Text #1
ID                          : 4
Format                      : UTF-8
Codec ID                    : S_TEXT/UTF8
Codec ID/Info               : UTF-8 Plain Text
Duration                    : 1 h 43 min
Bit rate                    : 41 b/s
Count of elements           : 1016
Stream size                 : 31.5 KiB (0%)
Title                       : Full
Language                    : English
Default                     : No
Forced                      : No

Text #2
ID                          : 5
Format                      : UTF-8
Codec ID                    : S_TEXT/UTF8
Codec ID/Info               : UTF-8 Plain Text
Duration                    : 1 h 43 min
Bit rate                    : 48 b/s
Count of elements           : 1276
Stream size                 : 37.3 KiB (0%)
Title                       : SDH
Language                    : English
Default                     : No
Forced                      : No

Menu
00:00:00.000                : en:Chapter 1
00:10:41.266                : en:Chapter 2
00:15:32.265                : en:Chapter 3
00:23:45.340                : en:Chapter 4
00:30:56.563                : en:Chapter 5
00:36:01.367                : en:Chapter 6
00:45:36.317                : en:Chapter 7
00:48:48.509                : en:Chapter 8
00:54:51.455                : en:Chapter 9
01:01:46.244                : en:Chapter 10
01:08:32.608                : en:Chapter 11
01:16:11.609                : en:Chapter 12
01:22:20.143                : en:Chapter 13
01:29:52.011                : en:Chapter 14
01:36:46.092                : en:Chapter 15
01:42:08.497                : en:Chapter 16


Підтримати купівлю інших фільмів можна тут


Джерело: &
Подяка з українську доріжку AngryBirdsUA, Hanway'ю та Gelios'у.


 Трекер:    Зареєстрований   

Завантажити / скачати фільм українською



відео для новачків



 Зареєстрований:   2016-07-16 08:47
 Розмір:   14 GB 
 Оцінка фільму:   6.5/10 (Голосів: 36)
   
Інші релізи
   Злочинець / Criminal (2016) Covenant  29 / 0   1.45 GB   2016-07-17 20:17 
   Злочинець / Criminal (2016) 720p Ukr/Eng | Sub Eng igor911  13 / 0   6.66 GB   2016-07-16 09:15 
   Злочинець / Criminal (2016) AVC Ukr/Eng | Sub Eng Загора  11 / 0   2.35 GB   2016-07-15 06:33 
   Злочинець / Criminal (2016) Ukr/Eng Gelios  25 / 0   2.18 GB   2016-07-14 20:48 
ika1963 
Відео Гуртом - дизайнер
Відео Гуртом - дизайнер


З нами з: 13.05.10
Востаннє: 06.12.16
Повідомлень: 200

2016-07-12 22:44  
Такі актори, - ух і ах, а така дурня, - бе і фе ... Sad (1)
Zovmoto 
Новенький


З нами з: 18.12.12
Востаннє: 06.12.16
Повідомлень: 15

2016-07-13 16:51  
Прекрасний фінальний саундтрек. А фільм трохи нуднуватий.
Anonymous 







2016-07-16 08:50  
Реліз оновлено якіснішими відеорядом та звуком

Золото на тиждень, перезавантажте, будь ласка, реліз!

borro 
Новенький


З нами з: 09.01.15
Востаннє: 06.12.16
Повідомлень: 20

2016-07-16 22:12  
фільм нормуль
demotyvator 
Частий відвідувач


З нами з: 24.02.12
Востаннє: 05.12.16
Повідомлень: 35

2016-07-20 21:04  
Хороший фільм.
Ваш часовий пояс: GMT + 2 Години

Нова тема   Відповісти