Завантажити та скачати торренти українською


Війна ґудзиків / War of the Buttons / La guerre des boutons (2011) 720p Ukr/Fre | Sub Eng/Fre/Ger

Нові коментарі

Нова тема   Відповісти
Автор Повідомлення
Anonymous 







2016-06-25 19:18  
Війна ґудзиків / War of the Buttons / La guerre des boutons (2011) 720p Ukr/Fre | Sub Eng/Fre/Ger

Війна ґудзиків / War of the Buttons / La guerre des boutons (2011) 720p Ukr/Fre | Sub Eng/Fre/Ger


Жанр: пригодницький, сімейний
Країна: Франція



Кінокомпанія: One World Films, TF1 Droits Audiovisuels, TF1 Films Production
Режисер: Ян Самюель / Yann Samuell
Актори: Ерік Елмосніно / Eric Elmosnino, Матільда Сен'є / Mathilde Seigner, Фред Тесто / Fred Testot, Ален Шаба / Alain Chabat, Вінсент Брес / Vincent Bres, Тео Бертран / Théo Bertrand, Трістан Вішар / Tristan Vichard, Луї Лефевр / Louis Lefèbvre, Віктор Ле Блон / Victor Le Blond, Артур Ґарньє / Arthur Garnier та інші

Сюжет:
Південь Франції, 1957 рік. Компанія хлопчаків на чолі з безстрашним Лебраком завжди готова кинути виклик своїм заклятим ворогам - хлопчакам з сусіднього села. Адже в одвічному протистоянні дітвори сусідніх сіл вже протягом декількох поколінь переможець так і не визначений. Але заради перемоги хлопці готові на все: боротися в незвичайному вигляді, щоб збентежити і заставити суперників кинутись навтьоки, і навіть запросити до себе для підмоги відчайдушну дівчину. Адже завдяки її вдачі та винахідливості можливо нарешті вдасться здобути перемогу над суперником.

За книгою "Війна ґудзиків" (1912) французького письменника Луї Перґо.


Вікова категорія: 7+

Тривалість: 01:49:14
Якість: 720p
Відео:
кодек:
розмір кадру: 1280 х 688
бітрейт: 5312 Кбіт/с [crf=20]

Аудіо # 1:
мова: українська
переклад: багатоголосий закадровий
кодек: 2.0
бітрейт: 192 Кбіт/с

Аудіо # 2:
мова: французька
переклад: оригінал
кодек: 5.1
бітрейт: 448 Кбіт/с

Субтитри #1-3:
мова: англійська, французька, німецька
тип: програмні (м'які)
формат: *.srt

Збережено оригінальні розділи, як на Blu-ray.
MediaInfo
Код:
Complete name               : La guerre des boutons (2011) [Ukr,Fre sub.Eng,Fre,Ger] 720p [Hurtom].mkv
Format                      : Matroska
Format version              : Version 4 / Version 2
File size                   : 4.54 GiB
Duration                    : 1h 49mn
Overall bit rate            : 5 955 Kbps
Movie name                  : Війна ґудзиків / War of the Buttons / La guerre des boutons (2011) [Ukr,Fre sub.Eng,Fre,Ger] 720p [Hurtom] by igor911
Encoded date                : UTC 2016-06-21 15:06:35
Writing application         : mkvmerge v9.2.0 ('Photograph') 64bit
Writing library             : libebml v1.3.3 + libmatroska v1.4.4
Cover                       : Yes
Attachments                 : cover.jpg

Video
ID                          : 1
Format                      : AVC
Format/Info                 : Advanced Video Codec
Format profile              : [email protected]
Format settings, CABAC      : Yes
Format settings, ReFrames   : 5 frames
Codec ID                    : V_MPEG4/ISO/AVC
Duration                    : 1h 49mn
Bit rate                    : 5 312 Kbps
Width                       : 1 280 pixels
Height                      : 688 pixels
Display aspect ratio        : 1.85:1
Frame rate mode             : Constant
Frame rate                  : 23.976 (24000/1001) fps
Color space                 : YUV
Chroma subsampling          : 4:2:0
Bit depth                   : 8 bits
Scan type                   : Progressive
Bits/(Pixel*Frame)          : 0.252
Stream size                 : 4.05 GiB (89%)
Title                       : Війна ґудзиків / War of the Buttons / La guerre des boutons (2011) [SONS]
Writing library             : core 124 r2197 69a0443
Encoding settings           : cabac=1 / ref=5 / deblock=1:0:0 / analyse=0x3:0x113 / me=umh / subme=7 / psy=1 / psy_rd=1.00:0.00 / mixed_ref=1 / me_range=16 / chroma_me=1 / trellis=1 / 8x8dct=1 / cqm=0 / deadzone=21,11 / fast_pskip=0 / chroma_qp_offset=-2 / threads=12 / sliced_threads=0 / nr=0 / decimate=1 / interlaced=0 / bluray_compat=0 / constrained_intra=0 / bframes=3 / b_pyramid=2 / b_adapt=1 / b_bias=0 / direct=1 / weightb=1 / open_gop=0 / weightp=2 / keyint=250 / keyint_min=23 / scenecut=40 / intra_refresh=0 / rc_lookahead=40 / rc=crf / mbtree=1 / crf=20.0 / qcomp=0.60 / qpmin=0 / qpmax=69 / qpstep=4 / ip_ratio=1.40 / aq=1:1.00
Language                    : French
Default                     : Yes
Forced                      : No

Audio #1
ID                          : 2
Format                      : AC-3
Format/Info                 : Audio Coding 3
Mode extension              : CM (complete main)
Format settings, Endianness : Big
Codec ID                    : A_AC3
Duration                    : 1h 49mn
Bit rate mode               : Constant
Bit rate                    : 192 Kbps
Channel(s)                  : 2 channels
Channel positions           : Front: L R
Sampling rate               : 48.0 KHz
Frame rate                  : 31.250 fps (1536 spf)
Compression mode            : Lossy
Stream size                 : 150 MiB (3%)
Title                       : MVO [NLO-TV] 2.0 192 kbps [Hurtom-ninenine,РОМЕО]
Language                    : Ukrainian
Default                     : Yes
Forced                      : No

Audio #2
ID                          : 3
Format                      : AC-3
Format/Info                 : Audio Coding 3
Mode extension              : CM (complete main)
Format settings, Endianness : Big
Codec ID                    : A_AC3
Duration                    : 1h 49mn
Bit rate mode               : Constant
Bit rate                    : 448 Kbps
Channel(s)                  : 6 channels
Channel positions           : Front: L C R, Side: L R, LFE
Sampling rate               : 48.0 KHz
Frame rate                  : 31.250 fps (1536 spf)
Compression mode            : Lossy
Stream size                 : 350 MiB (8%)
Title                       : Original, 5.1 448 kbps
Language                    : French
Default                     : No
Forced                      : No

Text #1
ID                          : 4
Format                      : UTF-8
Codec ID                    : S_TEXT/UTF8
Codec ID/Info               : UTF-8 Plain Text
Duration                    : 1h 43mn
Bit rate                    : 57 bps
Count of elements           : 1431
Stream size                 : 43.5 KiB (0%)
Title                       : English
Language                    : English
Default                     : No
Forced                      : No

Text #2
ID                          : 5
Format                      : UTF-8
Codec ID                    : S_TEXT/UTF8
Codec ID/Info               : UTF-8 Plain Text
Duration                    : 1h 49mn
Bit rate                    : 56 bps
Count of elements           : 2182
Stream size                 : 45.1 KiB (0%)
Title                       : French
Language                    : French
Default                     : No
Forced                      : No

Text #3
ID                          : 6
Format                      : UTF-8
Codec ID                    : S_TEXT/UTF8
Codec ID/Info               : UTF-8 Plain Text
Duration                    : 1h 44mn
Bit rate                    : 63 bps
Count of elements           : 1434
Stream size                 : 48.5 KiB (0%)
Title                       : Deutsch
Language                    : German
Default                     : No
Forced                      : No

Menu
00:00:00.000                : en:00:00:00.000
00:08:56.870                : en:00:08:56.870
00:19:23.662                : en:00:19:23.662
00:28:57.194                : en:00:28:57.194
00:36:42.409                : en:00:36:42.409
00:44:30.960                : en:00:44:30.960
00:53:37.297                : en:00:53:37.297
01:02:11.186                : en:01:02:11.186
01:11:12.310                : en:01:11:12.310
01:19:19.296                : en:01:19:19.296
01:29:18.812                : en:01:29:18.812
01:37:57.872                : en:01:37:57.872



Джерела та подяки: &
українська доріжка - ninenine - зведення, РОМЕО - запис з ТБ



ЗАЛИШАЙТЕСЬ ЯКОМОГА ДОВШЕ НА РОЗДАЧІ!
СКАЧАВ САМ - ДАЙ СКАЧАТИ ІНШИМ


 Трекер:    Зареєстрований   

Завантажити / скачати фільм українською



відео для новачків



 Зареєстрований:   2016-06-25 19:42
 Розмір:   4.54 GB 
 Оцінка фільму:   4.4/10 (Голосів: 16)
   
Інші релізи
-VipeR- 
VIP


З нами з: 17.07.08
Востаннє: 06.12.16
Повідомлень: 275

2016-06-26 11:15  
Дуже хороший сімейний фільм!
Ваш часовий пояс: GMT + 2 Години

Нова тема   Відповісти