Завантажити та скачати торренти українською


Зв'яжи мене / Átame! (1989) 720p Spa | sub Ukr

Нові коментарі

Нова тема   Відповісти
Автор Повідомлення
antusyrzhuk 
Свій


З нами з: 09.06.09
Востаннє: 19.11.16
Повідомлень: 145

2016-06-25 13:33  
Зв'яжи мене / Átame! (1989) 720p Spa | sub Ukr

Зв'яжи мене / Átame! (1989) 720p Spa | sub Ukr


Жанр: комедія, кримінальний, драма
Країна: Іспанія



Кінокомпанія: El Deseo
Режисер: Педро Альмодовар (Pedro Almodóvar)
Актори: Вікторія Абріль (Victoria Abril), Антоніо Бандерас (Antonio Banderas), Лолес Леон (Loles León), Франциско Рабаль (Francisco Rabal) та ін.

Сюжет:
Рікі звільнився з психіатричної лікарні, і він напевне знає, що буде робити. Він знаходить Марину, порнозірку, з якою колись займався сексом, і намагається переконати її стати його дружиною. Вона дещо вагається, тому він зв'язує її. Чи допоможе йому такий підхід закохати її в себе?


Тривалість: 01:42:04
Якість:
Відео:
кодек:
розмір кадру: 1280 х 688
бітрейт: 4609 кб/с

Аудіо:
мова: іспанська
переклад: оригінал
кодек: 5.1
бітрейт: 1509 кб/с

Субтитри:
мова: українська
тип: програмні (м'які)
формат: *.srt
переклад власний
Скріншоти



Mediainfo
Format : Matroska
Format version : Version 4 / Version 2
File size : 4.36 GiB
Duration : 1h 42mn
Overall bit rate : 6 121 Kbps
Movie name : Átame!*1989 /Orysia
Encoded date : UTC 2016-06-25 10:09:16
Writing application : mkvmerge v6.5.0 ('Isn't she lovely') built on Oct 20 2013 12:50:05
Writing library : libebml v1.3.0 + libmatroska v1.4.1

Video
ID : 1
Format : AVC
Format/Info : Advanced Video Codec
Format profile : [email protected]
Format settings, CABAC : Yes
Format settings, ReFrames : 5 frames
Codec ID : V_MPEG4/ISO/AVC
Duration : 1h 42mn
Bit rate : 4 609 Kbps
Width : 1 280 pixels
Height : 688 pixels
Display aspect ratio : 1.85:1
Frame rate mode : Constant
Frame rate : 23.976 fps
Color space : YUV
Chroma subsampling : 4:2:0
Bit depth : 8 bits
Scan type : Progressive
Bits/(Pixel*Frame) : 0.218
Stream size : 3.20 GiB (73%)
Writing library : core 142 r2453 ea0ca51
Encoding settings : cabac=1 / ref=5 / deblock=1:-1:-1 / analyse=0x3:0x113 / me=umh / subme=7 / psy=1 / psy_rd=1.00:0.00 / mixed_ref=1 / me_range=16 / chroma_me=1 / trellis=1 / 8x8dct=1 / cqm=0 / deadzone=21,11 / fast_pskip=1 / chroma_qp_offset=-2 / threads=12 / lookahead_threads=2 / sliced_threads=0 / nr=0 / decimate=1 / interlaced=0 / bluray_compat=0 / constrained_intra=0 / bframes=3 / b_pyramid=2 / b_adapt=2 / b_bias=0 / direct=3 / weightb=1 / open_gop=0 / weightp=2 / keyint=250 / keyint_min=23 / scenecut=40 / intra_refresh=0 / rc_lookahead=40 / rc=2pass / mbtree=1 / bitrate=4609 / ratetol=1.0 / qcomp=0.60 / qpmin=0 / qpmax=69 / qpstep=4 / cplxblur=20.0 / qblur=0.5 / vbv_maxrate=50000 / vbv_bufsize=50000 / nal_hrd=none / filler=0 / ip_ratio=1.40 / aq=1:1.00
Language : Spanish
Default : Yes
Forced : No

Audio
ID : 2
Format :
Format/Info : Digital Theater Systems
Mode : 16
Format settings, Endianness : Big
Codec ID : A_DTS
Duration : 1h 42mn
Bit rate mode : Constant
Bit rate : 1 509 Kbps
Channel(s) : 6 channels
Channel positions : Front: L C R, Side: L R, LFE
Sampling rate : 48.0 KHz
Bit depth : 24 bits
Compression mode : Lossy
Stream size : 1.08 GiB (25%)
Language : Spanish
Default : Yes
Forced : No

Text
ID : 3
Format : UTF-8
Codec ID : S_TEXT/UTF8
Codec ID/Info : UTF-8 Plain Text
Language : Ukrainian
Default : Yes
Forced : No
Джерело:
Особиста оцінка: 10 - без зайвих вагань рекомендую всім!


Золотий реліз (завантажене не впливає на рейтинг)
 Трекер:    Зареєстрований   

Завантажити / скачати фільм українською



відео для новачків



 Зареєстрований:   2016-06-25 13:33
 Розмір:   4.36 GB 
 Оцінка фільму:   10/10 (Голосів: 1)
   
Konfucius 
Управління
Управління


З нами з: 30.09.07
Востаннє: 04.12.16
Повідомлень: 4741

2016-06-27 01:35  
Бракує mediainfo.
Ваш часовий пояс: GMT + 2 Години

Нова тема   Відповісти