Завантажити та скачати торренти українською


Цацикі, тато та оливкова битва / Tsatsiki, farsan och olivkriget (2015) 720p Ukr/Swe

Нові коментарі

Нова тема   Відповісти
Автор Повідомлення
Anonymous 







2016-06-24 23:20  
Цаци́кі, тато та оливкова битва / Tsatsiki, farsan och olivkriget (2015) 720p Ukr/Swe

Цацикі, тато та оливкова битва / Tsatsiki, farsan och olivkriget (2015) 720p Ukr/Swe


Жанр: сімейний
Країна: Швеція



Кінокомпанія: Jarowskij AB
Режисер: Ліза Джеймс Ларссон / Lisa James Larsson
Актори: Емрік Екхольм / Emrik Ekholm, Адам Гутняк / Adam Gutniak, Сара Вілен / Sara Vilén, Лів Мйонес / Liv Mjönes, Ельза Джеймс Розен / Elsa James Rosen, Джонатан Родрігез / Jonatan Rodriguez, Крістін Мельтцер / Christine Meltzer, Ніколь Кокіну / Nicole Kokkinu, Зафірас Катрамадас / Zafiris Katramadas та інші

Сюжет:
11-річний Цаци́кі на канікулах відправляється зі Швеції в довгоочікувану поїздку в Грецію до свого тата Янніса. Але за рік селище помітно змінилося: через кризу в країні в готелях та ресторанах майже порожньо. Коли тато повідомляє хлопцеві, що він змушений продати готель та оливковий гай, котрими їхня родина володіла протягом багатьох-багатьох років, Цаци́кі вирішує не здаватися й намагається вигадати спосіб врятувати свого батька й усе селище. На юного героя чекає літо, повне пригод, літо першого кохання…

Український трейлер (озвучення таке ж як у релізі):


Вікова категорія: 11+

Тривалість: 01:34:52
Якість: 720p
Відео:
кодек:
розмір кадру: 1280 х 536
бітрейт: 5084 кб/с

Аудіо # 1:
мова: українська
переклад: одноголосий закадровий - Герман Лукич студіо - завантажити семпл
кодек: 2.0
бітрейт: 192 Кбіт/с

Аудіо # 2:
мова: шведська
переклад: оригінал
кодек: 5.1
бітрейт: 640 Кбіт/с
MediaInfo
Код:
Complete name               : Tsatsiki, farsan och olivkriget (2015) [Ukr,Swe] 720p [Hurtom].mkv
Format                      : Matroska
Format version              : Version 4 / Version 2
File size                   : 3.92 GiB
Duration                    : 1h 34mn
Overall bit rate            : 5 917 Kbps
Movie name                  : Цацикі, тато та оливкова битва / Tsatsiki, farsan och olivkriget (2015) [Ukr,Swe] 720p [Hurtom] by igor911
Encoded date                : UTC 2016-06-24 21:37:53
Writing application         : mkvmerge v9.2.0 ('Photograph') 64bit
Writing library             : libebml v1.3.3 + libmatroska v1.4.4
Cover                       : Yes
Attachments                 : cover.jpg

Video
ID                          : 1
Format                      : AVC
Format/Info                 : Advanced Video Codec
Format profile              : [email protected]
Format settings, CABAC      : Yes
Format settings, ReFrames   : 5 frames
Codec ID                    : V_MPEG4/ISO/AVC
Duration                    : 1h 34mn
Bit rate                    : 5 084 Kbps
Width                       : 1 280 pixels
Height                      : 536 pixels
Display aspect ratio        : 2.40:1
Frame rate mode             : Constant
Frame rate                  : 24.000 fps
Color space                 : YUV
Chroma subsampling          : 4:2:0
Bit depth                   : 8 bits
Scan type                   : Progressive
Bits/(Pixel*Frame)          : 0.309
Stream size                 : 3.37 GiB (86%)
Title                       : Цацикі, тато та оливкова битва / Tsatsiki, farsan och olivkriget (2015) 720p [iMSORNY]
Writing library             : core 148 r2665kMod a01e339
Encoding settings           : cabac=1 / ref=5 / deblock=1:0:0 / analyse=0x3:0x133 / me=umh / subme=7 / psy=1 / fade_compensate=0.00 / psy_rd=1.00:0.00 / mixed_ref=1 / me_range=16 / chroma_me=1 / trellis=1 / 8x8dct=1 / cqm=0 / deadzone=21,11 / fast_pskip=0 / chroma_qp_offset=-2 / threads=17 / lookahead_threads=2 / sliced_threads=0 / nr=0 / decimate=1 / interlaced=0 / bluray_compat=0 / constrained_intra=0 / fgo=0 / bframes=3 / b_pyramid=2 / b_adapt=2 / b_bias=0 / direct=3 / weightb=1 / open_gop=0 / weightp=2 / keyint=250 / keyint_min=24 / scenecut=40 / intra_refresh=0 / rc_lookahead=50 / rc=2pass / mbtree=1 / bitrate=5084 / ratetol=1.0 / qcomp=0.60 / qpmin=0 / qpmax=69 / qpstep=4 / cplxblur=20.0 / qblur=0.5 / ip_ratio=1.40 / aq=1:1.00
Language                    : Swedish
Default                     : Yes
Forced                      : No

Audio #1
ID                          : 2
Format                      : AC-3
Format/Info                 : Audio Coding 3
Mode extension              : CM (complete main)
Format settings, Endianness : Big
Codec ID                    : A_AC3
Duration                    : 1h 34mn
Bit rate mode               : Constant
Bit rate                    : 192 Kbps
Channel(s)                  : 2 channels
Channel positions           : Front: L R
Sampling rate               : 48.0 KHz
Frame rate                  : 31.250 fps (1536 spf)
Compression mode            : Lossy
Stream size                 : 130 MiB (3%)
Title                       : AVO [Herman Lukych studio] 2.0 192 kbps [Hurtom-1101]
Language                    : Ukrainian
Default                     : Yes
Forced                      : No

Audio #2
ID                          : 3
Format                      : AC-3
Format/Info                 : Audio Coding 3
Mode extension              : CM (complete main)
Format settings, Endianness : Big
Codec ID                    : A_AC3
Duration                    : 1h 34mn
Bit rate mode               : Constant
Bit rate                    : 640 Kbps
Channel(s)                  : 6 channels
Channel positions           : Front: L C R, Side: L R, LFE
Sampling rate               : 48.0 KHz
Frame rate                  : 31.250 fps (1536 spf)
Compression mode            : Lossy
Stream size                 : 434 MiB (11%)
Title                       : Original, 5.1 640 kbps
Language                    : Swedish
Default                     : No
Forced                      : No

Menu
00:00:00.000                : en:00:00:00.000
00:09:59.542                : en:00:09:59.542
00:19:59.542                : en:00:19:59.542
00:29:59.833                : en:00:29:59.833
00:39:59.625                : en:00:39:59.625
00:50:00.000                : en:00:50:00.000
00:59:59.958                : en:00:59:59.958
01:09:59.708                : en:01:09:59.708
01:19:59.792                : en:01:19:59.792
01:30:00.000                : en:01:30:00.000


Порівняння якості ріпів:
Цей ріп (5084 Кбіт/с)<----------------->720p-міні (1805 Кбіт/с)





Джерела та подяки: &
українська доріжка - 1101


ЗАЛИШАЙТЕСЬ ЯКОМОГА ДОВШЕ НА РОЗДАЧІ!

СКАЧАВ САМ - ДАЙ СКАЧАТИ ІНШИМ


Авторський реліз (завантажувати можна без реєстрації)
 Трекер:    Зареєстрований   

Завантажити / скачати фільм українською



відео для новачків



 Зареєстрований:   2016-06-25 00:35
 Розмір:   3.92 GB 
 Оцінка фільму:   4.7/10 (Голосів: 17)
   
Ваш часовий пояс: GMT + 2 Години

Нова тема   Відповісти