Завантажити та скачати торренти українською


Victor Pavlik (Віктор Павлік) - No Promises No Forgivness (2014) [FLAC] | Pop

Нові коментарі

Нова тема   Відповісти
Автор Повідомлення
kolpavel 
VIP


З нами з: 04.05.14
Востаннє: 10.12.16
Повідомлень: 1061

2016-06-23 13:53  
Victor Pavlik (Віктор Павлік) - No Promises No Forgivness (2014) [FLAC] | Pop

Victor Pavlik (Віктор Павлік) - No Promises No Forgivness (2014) [FLAC] | Pop


Стиль: Pop
Країна, місто: Україна, Теребовля (Тернопільська обл.)
Сайти: Офіційний сайт
Видавець: Moon Records (MR 5700-2)
Виконавці:
Віктор Павлік
Пісні:

    01. I Just Like You (Polyansky remake), музика: Sergey Lazo, слова: Anastasiya Lazo
    02. No Promises No Forgiveness, музика: Sergey Lazo, слова: Anastasiya Lazo
    03. Room Inside My Heart, музика: Chris Smith, слова: John Cody
    04. The Wisdom Of Insecurity, музика: Chris Smith, слова: Matthew Gerrard
    05. Heart's Desire, музика: Igor Pidgayny, слова: Olena Basyuk
    06. I Never Loved You, музика: Oleg "Bily" Shevchenko, слова: Sergey Lazo
    07. I Live For You, музика: Viktor Pavlik, Dmitriy Klimashenko, слова: Alla Grygoryan
    08. Baby, музика: Sergey Lazo, слова: Anastasiya Lazo
    09. Mystery, музика: Olexandr Bilash, слова: Olena Basyuk
    10. Hotel California (unplugged), музика: Don Felder, Glenn Frey, Don Henley, слова: Don Felder, Glenn Frey, Don Henley
    11. She Is a Lady, музика: Paul Anka, слова: Paul Anka
    12. Hallelujah, музыка: Leonard Cohen, слова: Leonard Cohen

Тривалість: 51:31:56
Мова: англiйська
Аудіо-кодек: FLAC
Бітрейт: 981 кб/с
Джерело: трекер
Додаткова інформація:
EAC
Exact Audio Copy V1.0 beta 6 from 9. April 2015

EAC extraction logfile from 19. June 2016, 13:30

Victor Pavlik / No promises no forgivness

Used drive : TEAC CD-W552G Adapter: 1 ID: 2

Read mode : Secure
Utilize accurate stream : Yes
Defeat audio cache : Yes
Make use of C2 pointers : No

Read offset correction : 6
Overread into Lead-In and Lead-Out : No
Fill up missing offset samples with silence : Yes
Delete leading and trailing silent blocks : No
Null samples used in CRC calculations : Yes
Used interface : Native Win32 interface for Win NT & 2000

Used output format : User Defined Encoder
Selected bitrate : 128 kBit/s
Quality : High
Add ID3 tag : No
Command line compressor : C:\Program Files (x86)\Exact Audio Copy\Flac\flac.exe
Additional command line options : -6 -V -T "ARTIST=%artist%" -T "TITLE=%title%" -T "ALBUM=%albumtitle%" -T "DATE=%year%" -T "TRACKNUMBER=%tracknr%" -T "GENRE=%genre%" -T "COMMENT=%comment%" -T "BAND=%albuminterpret%" -T "ALBUMARTIST=%albuminterpret%" -T "COMPOSER=%composer%" %haslyrics%--tag-from-file=LYRICS="%lyricsfile%"%haslyrics% -T "DISCNUMBER=%cdnumber%" -T "TOTALDISCS=%totalcds%" -T "TOTALTRACKS=%numtracks%" %hascover%--picture="%coverfile%"%hascover% %source% -o %dest%

TOC of the extracted CD

Track | Start | Length | Start sector | End sector
---------------------------------------------------------
1 | 0:00.00 | 4:45.31 | 0 | 21405
2 | 4:45.31 | 5:52.60 | 21406 | 47865
3 | 10:38.16 | 4:13.18 | 47866 | 66858
4 | 14:51.34 | 4:53.05 | 66859 | 88838
5 | 19:44.39 | 4:35.00 | 88839 | 109463
6 | 24:19.39 | 3:00.25 | 109464 | 122988
7 | 27:19.64 | 3:53.68 | 122989 | 140531
8 | 31:13.57 | 3:20.39 | 140532 | 155570
9 | 34:34.21 | 3:35.34 | 155571 | 171729
10 | 38:09.55 | 7:07.73 | 171730 | 203827
11 | 45:17.53 | 2:53.32 | 203828 | 216834
12 | 48:11.10 | 3:20.46 | 216835 | 231880

Range status and errors

Selected range

Filename F:\333\Victor Pavlik - No promises no forgivness.wav

Peak level 98.8 %
Extraction speed 8.9 X
Range quality 100.0 %
Test CRC A88100E8
Copy CRC A88100E8
Copy OK

No errors occurred

End of status report

==== Log checksum 58F7EB37A04F9784A4EF78D58713737CA9DCD20F68D525B89F07BDF067B1DE2E ====
(.CUE)
REM GENRE Pop
REM DATE 2014
REM DISCID B40C130C
REM COMMENT "ExactAudioCopy v1.0b6"
PERFORMER "Victor Pavlik"
TITLE "No promises no forgivness"
FILE "Victor Pavlik - No promises no forgivness.flac" WAVE
TRACK 01 AUDIO
TITLE "I Just Like You"
PERFORMER "Victor Pavlik"
INDEX 01 00:00:00
TRACK 02 AUDIO
TITLE "No Promises No Forgivness"
PERFORMER "Victor Pavlik"
INDEX 00 04:43:31
INDEX 01 04:45:31
INDEX 02 04:45:53
TRACK 03 AUDIO
TITLE "Room inside my heart"
PERFORMER "Victor Pavlik"
INDEX 00 10:36:16
INDEX 01 10:38:16
INDEX 02 10:38:38
TRACK 04 AUDIO
TITLE "The Visdom Of Insecurity"
PERFORMER "Victor Pavlik"
INDEX 00 14:49:34
INDEX 01 14:51:34
TRACK 05 AUDIO
TITLE "Heart's Desire"
PERFORMER "Victor Pavlik"
INDEX 00 19:42:39
INDEX 01 19:44:39
INDEX 02 19:44:61
TRACK 06 AUDIO
TITLE "I Never Loved You"
PERFORMER "Victor Pavlik"
INDEX 00 24:17:39
INDEX 01 24:19:39
TRACK 07 AUDIO
TITLE "I Live Fore You"
PERFORMER "Victor Pavlik"
INDEX 00 27:17:64
INDEX 01 27:19:64
TRACK 08 AUDIO
TITLE "Baby"
PERFORMER "Victor Pavlik"
INDEX 00 31:11:57
INDEX 01 31:13:57
INDEX 02 31:14:04
TRACK 09 AUDIO
TITLE "Mystery"
PERFORMER "Victor Pavlik"
INDEX 00 34:32:21
INDEX 01 34:34:21
INDEX 02 34:34:43
TRACK 10 AUDIO
TITLE "Hotel California"
PERFORMER "Victor Pavlik"
INDEX 00 38:07:55
INDEX 01 38:09:55
TRACK 11 AUDIO
TITLE "She Is A Lady"
PERFORMER "Victor Pavlik"
INDEX 00 45:15:53
INDEX 01 45:17:53
TRACK 12 AUDIO
TITLE "Hallelujah"
PERFORMER "Victor Pavlik"
INDEX 00 48:09:10
INDEX 01 48:11:10
INDEX 02 48:11:32
Був момент, коли Віктор Павлик майже зник зі сцени, відійшов у тінь - але схоже, що саме це дозволило йому відчувати себе більш вільно. Наприклад, в 2010 році він раптово з'явився в проекті Ігоря Закуса - "Українська басова пісня". А тепер - Павлик повернувся з англомовним альбомом. Більш того, альбом записаний в кілька незвичній для нього стилістиці - точніше, вона ближча до раннього періоду творчості, пов'язаного ще з групою "Анна-Марія". Було б перебільшенням говорити про явну пріджазованності (хоча трохи все ж є) - але це однозначно відрізняється від "махрової" української естради в кращу сторону. Зрештою, це інші музиканти, зовсім інший досвід - і, безумовно, інші завдання. Виникає відчуття, що альбом робився головним чином для власного задоволення - і це, мабуть, правильно. До речі, можливо, саме тому тут є не тільки переклади кращих пісень Павлика різних років, а й кілька приємних каверів на хіти світові. Словом, здорово, коли наша поп - музика у виконанні старшого покоління починає звучати так само. Є в цьому ... сенс.


Якщо Ви справді бажаєте підтримати українське - після прослуховування, якщо музика вам сподобалась, придбайте ліцензійний диск. Підтримаймо вітчизняних виконавців!


Срібний реліз (на рейтинг впливає 50% завантаженого)
 Трекер:    Зареєстрований   

Завантажити / скачати українську музику



відео для новачків



 Зареєстрований:   2016-06-23 13:53
 Розмір:   364 MB 
 Оцінка музики:   10/10 (Голосів: 4)
   
djneo 
Частий відвідувач


З нами з: 30.11.07
Востаннє: 09.12.16
Повідомлень: 28

2016-06-24 00:01  
Я в шоці! Але досить класно!
lpershyi 
Попереджень: 2
Попереджень: 2 


З нами з: 04.01.11
Востаннє: 30.11.16
Повідомлень: 2622

2016-06-24 06:26  
djneo
Звичайна справа, чому ви в такому стані, що призводить до смерти?

djneo 
Частий відвідувач


З нами з: 30.11.07
Востаннє: 09.12.16
Повідомлень: 28

2016-06-24 07:15  
Просто не чекав від Павліка такого. А тут на маєш. Рівень поваги значно виріс до хлопця з Теребовлі.
lpershyi 
Попереджень: 2
Попереджень: 2 


З нами з: 04.01.11
Востаннє: 30.11.16
Повідомлень: 2622

2016-06-24 08:36  
djneo
Так це дивує, навіть свою персональну сторінку п. Павлик українізував, раніше була іноземною російською мовою.

Ваш часовий пояс: GMT + 2 Години

Нова тема   Відповісти