Завантажити та скачати торренти українською


Боги Єгипту / Gods of Egypt (2016) 720p-mini (60 fps)

Нові коментарі

Нова тема   Відповісти
Автор Повідомлення
Drool 
VIP


З нами з: 17.04.10
Востаннє: 02.12.16
Повідомлень: 1262

2016-06-23 11:38  
Боги Єгипту / Gods of Egypt (2016) 720p-mini (60 fps)

Жанр: екшн, пригодницький, фентезі
Країна: США



Кінокомпанія: Pyramania, Summit Entertainment, Mystery Clock Cinema
Режисер: Алекс Прояс
Актори: Джерард Батлер, Брентон Твейтес, Еббі Лі, Ніколай Костер-Вальдау, Кортні Ітон, Джеффрі Раш, Рейчел Блейк, Чедвік Боузмен, Елоді Янґ

Сюжет:
Колись мирне і процвітаюче єгипетське царство занурюється в хаос: нещадний бог темряви Сет вбиває свого брата Осіріса і узурпує трон. Виклик йому несподівано кидає простий смертний, спритний молодий злодій. Щоб повернути до життя свою прекрасну кохану, йому доводиться заручитися підтримкою могутнього і мстивого бога Гора. Лише витримавши випробування на міцність і принісши в жертву все найдорожче, їм вдасться протистояти Сету і його поплічникам в світі живих і світі мертвих.


Тривалість: 02:07:02
Якість: 720p-mini
Відео:
кодек:
розмір кадру: 1280x534
бітрейт: 3658 кб/с
crf: 17.5
кадрів на секунду: 59.940 к/с

Аудіо:
мова: українська
переклад: професійний дубльований
кодек: 2.0
бітрейт: 192 кб/с
MediaInfo
General
Unique ID : 281130783621693959446158512747609640587 (0xD37FD1C740B97D4CC1A0C1DD043CCE8B)
Complete name : /mnt/disk_d/Video/Gods.of.Egypt.2016.Ukr.Dub-Line..720p-mini.60fps.mkv
Format : Matroska
Format version : Version 4 / Version 2
File size : 3.49 GiB
Duration : 2h 7mn
Overall bit rate : 3 929 Kbps
Movie name : Боги Єгипту / Gods of Egypt (2016) 720p-mini [60 fps] | video by NNNB
Encoded date : UTC 2016-06-23 07:10:51
Writing application : mkvmerge v8.2.0 ('World of Adventure') 64bit
Writing library : libebml v1.3.1 + libmatroska v1.4.2
DURATION : 02:07:02.688000000
NUMBER_OF_FRAMES : 238209
NUMBER_OF_BYTES : 182944512
_STATISTICS_WRITING_APP : mkvmerge v8.2.0 ('World of Adventure') 64bit
_STATISTICS_WRITING_DATE_UTC : 2016-06-23 07:10:51
_STATISTICS_TAGS : BPS DURATION NUMBER_OF_FRAMES NUMBER_OF_BYTES

Video
ID : 1
Format : AVC
Format/Info : Advanced Video Codec
Format profile : [email protected]
Format settings, CABAC : Yes
Format settings, ReFrames : 9 frames
Codec ID : V_MPEG4/ISO/AVC
Duration : 2h 7mn
Bit rate : 3 658 Kbps
Width : 1 280 pixels
Height : 534 pixels
Display aspect ratio : 2.40:1
Frame rate mode : Constant
Frame rate : 59.880 fps
Original frame rate : 59.940 fps
Color space : YUV
Chroma subsampling : 4:2:0
Bit depth : 8 bits
Scan type : Progressive
Bits/(Pixel*Frame) : 0.089
Stream size : 3.25 GiB (93%)
Title : Боги Єгипту / Gods of Egypt (2016) 720p-mini [60 fps] | video by NNNB
Writing library : core 146 r2538 121396c
Encoding settings : cabac=1 / ref=9 / deblock=1:0:0 / analyse=0x3:0x113 / me=umh / subme=10 / psy=1 / psy_rd=0.00:0.00 / mixed_ref=1 / me_range=24 / chroma_me=1 / trellis=2 / 8x8dct=1 / cqm=0 / deadzone=21,11 / fast_pskip=0 / chroma_qp_offset=0 / threads=12 / lookahead_threads=1 / sliced_threads=0 / nr=0 / decimate=0 / interlaced=0 / bluray_compat=0 / constrained_intra=0 / bframes=5 / b_pyramid=2 / b_adapt=2 / b_bias=0 / direct=2 / weightb=1 / open_gop=0 / weightp=2 / keyint=250 / keyint_min=25 / scenecut=40 / intra_refresh=0 / rc_lookahead=40 / rc=crf / mbtree=0 / crf=17.5 / qcomp=0.60 / qpmin=0 / qpmax=69 / qpstep=4 / vbv_maxrate=14000 / vbv_bufsize=14000 / crf_max=0.0 / nal_hrd=none / filler=0 / ip_ratio=1.40 / pb_ratio=1.30 / aq=3:0.70
Default : Yes
Forced : Yes
DURATION : 02:07:02.515000000
NUMBER_OF_FRAMES : 456894
NUMBER_OF_BYTES : 3556688710
_STATISTICS_WRITING_APP : mkvmerge v8.2.0 ('World of Adventure') 64bit
_STATISTICS_WRITING_DATE_UTC : 2016-06-23 07:10:51
_STATISTICS_TAGS : BPS DURATION NUMBER_OF_FRAMES NUMBER_OF_BYTES

Audio
ID : 2
Format : AC-3
Format/Info : Audio Coding 3
Mode extension : CM (complete main)
Format settings, Endianness : Big
Codec ID : A_AC3
Duration : 2h 7mn
Bit rate mode : Constant
Bit rate : 192 Kbps
Channel(s) : 2 channels
Channel positions : Front: L R
Sampling rate : 48.0 KHz
Compression mode : Lossy
Stream size : 174 MiB (5%)
Title : Line in
Language : Ukrainian
Default : Yes
Forced : Yes
Скріншоти



Джерело відеоряду:
Особиста оцінка: 8 - мені сподобалося


 Трекер:    Зареєстрований   

Завантажити / скачати фільм українською



відео для новачків



 Зареєстрований:   2016-06-23 11:38
 Розмір:   3.49 GB 
 Оцінка фільму:   9.5/10 (Голосів: 19)
   
Інші релізи
   Боги Єгипту / Gods of Egypt (2016) 1080p 3D [HalfOverUnder] Ukr/Eng | Sub Eng -VipeR-  6 / 0   11.49 GB   2016-05-22 10:37 
   Боги Єгипту / Gods of Egypt (2016) AVC Ukr/Eng | Sub Eng Загора  14 / 0   2.82 GB   2016-05-18 14:00 
   Боги Єгипту / Gods of Egypt (2016) AVC Gelios  20 / 0   2.17 GB   2016-05-18 13:30 
   Боги Єгипту / Gods of Egypt (2016) Covenant  76 / 0   1.45 GB   2016-05-18 11:57 
   Боги Єгипту / Gods of Egypt (2016) 1080p Ukr/Eng | Sub Eng Загора  18 / 0   9.07 GB   2016-05-18 09:52 
   Боги Єгипту / Gods of Egypt (2016) 720p Ukr/Eng | Sub Eng Загора  16 / 0   4.69 GB   2016-05-18 09:11 
Wysnewetskyj 
Новенький


З нами з: 30.05.16
Востаннє: 03.12.16
Повідомлень: 13

2016-06-27 12:05  
Двадцять хвилин цього шедевру і хочеться блювати від сценариста і від того хто відповідав за графіку та спецефекти...
reihss 
Новенький


З нами з: 08.04.14
Востаннє: 02.12.16
Повідомлень: 4

2016-06-30 15:55  
Підтримую )
Дивлячися на головного героя "той шо бог" думав от зара десь мають появитися старки і наваляти йому))

Ваш часовий пояс: GMT + 2 Години

Нова тема   Відповісти