Завантажити та скачати торренти українською


Джинси, як символ дружби 2 / The Sisterhood of the Traveling Pants 2 (2008) 720p Ukr/Eng

Нові коментарі

Нова тема   Відповісти
Останній раз роздавалося urij546724 (2016-12-10)
Автор Повідомлення
urij546724 
Відео Гуртом - фільмокрай
Відео Гуртом - фільмокрай


З нами з: 16.03.10
Востаннє: 09.12.16
Повідомлень: 5222

2016-06-20 09:11  
Джинси, як символ дружби 2 / The Sisterhood of the Traveling Pants 2 (2008) 720p Ukr/Eng

Джинси, як символ дружби 2 / The Sisterhood of the Traveling Pants 2 (2008) 720p Ukr/Eng


Жанр: комедія, драма, сімейний, романтичний
Країна: США



Кіностудія / кінокомпанія: Alcon Entertainment, DiNovi Pictures, Alloy Entertainment
Режисер: Санаа Хамрі (Sanaa Hamri)
Актори: Ембер Темблін (Amber Tamblyn), Алексіс Бледел (Alexis Bledel), Америка Феррера (America Ferrera), Блейк Лайвлі (Blake Lively), Рейчел Ніколс (Rachel Nichols), Том Вісдом (Tom Wisdom), Рейчел Тікотін (Rachel Ticotin), Леонардо Нам (Leonardo Nam)...

Сюжет:
Продовження історії про чотирьох подруг дитинства, яких розкидала в різні боки доля-лиходійка і лише пара джинсів з секонд-хенду, яка ідеально підходять кожній з них і передаються з рук в руки, їх талісман, не дає їм забути про свою дружбу. Минуло три роки. З 16-ти літніх дівчаток вийшли 19-ти річні красуні. Перший рік в коледжі. І перші літні канікули. Вони люблять і сваряться, відкривають у собі страхи і таланти, досліджують запаси своєї любові і розуміють, що все це можливо, але у них є ще й нескінченна сила дружби.
Media info
General
Unique ID : 249750732081226461214246296249937907388 (0xBBE43DC96D64012AB859E15AC4C74EBC)
Complete name : E:\HD1\The Sisterhood of the Traveling Pants 2 (2008) [ukr.Novij_eng_AC3_5.1] 720p [Hurtom] by urij546724.mkv
Format : Matroska
Format version : Version 2
File size : 4.91 GiB
Duration : 1h 59mn
Overall bit rate : 5 875 Kbps
Movie name : The Sisterhood of the Traveling Pants 2 (2008) [ukr.Novij_eng_AC3_5.1] [Hurtom] by urij546724
Encoded date : UTC 2016-05-10 06:58:29
Writing application : mkvmerge v2.9.7 ('Tenderness') built on Jul 1 2009 18:43:35
Writing library : libebml v0.7.7 + libmatroska v0.8.1

Video
ID : 1
Format : AVC
Format/Info : Advanced Video Codec
Format profile : [email protected]
Format settings, CABAC : Yes
Format settings, ReFrames : 10 frames
Codec ID : V_MPEG4/ISO/AVC
Duration : 1h 59mn
Bit rate : 4 593 Kbps
Width : 1 280 pixels
Height : 720 pixels
Display aspect ratio : 16:9
Frame rate mode : Constant
Frame rate : 23.976 fps
Color space : YUV
Chroma subsampling : 4:2:0
Bit depth : 8 bits
Scan type : Progressive
Bits/(Pixel*Frame) : 0.208
Stream size : 3.74 GiB (76%)
Title : The Sisterhood of the Traveling Pants 2 (2008) [ukr.Novij_eng_AC3_5.1] [Hurtom] by urij546724
Writing library : core 65 r1016M dbc5ef0
Encoding settings : cabac=1 / ref=10 / deblock=1:0:0 / analyse=0x3:0x2 / me=umh / subme=7 / psy_rd=1.0:0.0 / mixed_ref=1 / me_range=16 / chroma_me=1 / trellis=1 / 8x8dct=1 / cqm=0 / deadzone=21,11 / chroma_qp_offset=-2 / threads=6 / nr=0 / decimate=1 / mbaff=0 / bframes=3 / b_pyramid=1 / b_adapt=1 / b_bias=0 / direct=3 / wpredb=1 / keyint=250 / keyint_min=25 / scenecut=40(pre) / rc=2pass / bitrate=4593 / ratetol=1.0 / qcomp=0.60 / qpmin=10 / qpmax=51 / qpstep=4 / cplxblur=20.0 / qblur=0.5 / ip_ratio=1.40 / pb_ratio=1.30 / aq=1:1.00
Language : English
Default : Yes
Forced : No

Audio #1
ID : 2
Format : AC-3
Format/Info : Audio Coding 3
Mode extension : CM (complete main)
Format settings, Endianness : Big
Codec ID : A_AC3
Duration : 1h 59mn
Bit rate mode : Constant
Bit rate : 640 Kbps
Channel count : 6 channels
Channel positions : Front: L C R, Side: L R, LFE
Sampling rate : 48.0 KHz
Bit depth : 16 bits
Compression mode : Lossy
Stream size : 547 MiB (11%)
Title : Українська доріжка
Language : Ukrainian
Default : Yes
Forced : Yes

Audio #2
ID : 3
Format : AC-3
Format/Info : Audio Coding 3
Mode extension : CM (complete main)
Format settings, Endianness : Big
Codec ID : A_AC3
Duration : 1h 59mn
Bit rate mode : Constant
Bit rate : 640 Kbps
Channel count : 6 channels
Channel positions : Front: L C R, Side: L R, LFE
Sampling rate : 48.0 KHz
Bit depth : 16 bits
Compression mode : Lossy
Stream size : 547 MiB (11%)
Title : Оригінальна доріжка
Language : English
Default : No
Forced : No
Тривалість: 01:59:34
Якість: 720p
Відео:
кодек:
розмір кадру: 1280 х 720
бітрейт: ~ 4593 кб/с
частота кадрів: 23.976 к/с (fps)

Аудіо #1:
мова: українська
переклад: двоголосий закадровий
кодек: 5.1
бітрейт: 640 кб/с
запис звуку з каналу: Новий канал

Аудіо #2:
мова: англійська, грецька
переклад: оригінал
кодек: 5.1
бітрейт: 640 кб/с

Скріншоти:





Трейлери:

Семпл
Джерело 1_________Джерело 2_________Джерело 3_________Джерело 4_________Джерело 5_________Джерело 6
У випадку, якщо з усіх джерел семпл видалять, прохання повідомити мені у ПРИВАТ


Подяка:

1. Пану xslim, Пану karvai0, Пану andrew_crasher і Пану urij546724 за запис звуку з ТБ.


Реліз створено:


 Трекер:    Зареєстрований   

Завантажити / скачати фільм українською



відео для новачків



 Зареєстрований:   2016-06-20 09:11
 Розмір:   4.91 GB 
 Оцінка фільму:   1.6/10 (Голосів: 14)
 Прохання не тікати з роздачі одразу після завантаження.
   
igor911 
Відео Гуртом
Відео Гуртом


З нами з: 18.01.08
Востаннє: 10.12.16
Повідомлень: 5215

2016-06-20 11:54  
urij546724 написано:
Format profile : [email protected]
ReFrames : 10 frames

Через це можуть виникнути проблеми з сумісністю з "залізними" програвачами, вбудованими програвачами TV. Добуток Ширина кадру х Висота кадру х ReFrames не повинен перевищувати 9000000. Тобто, для повного кадру 720р ReFrames має бути не більшим 9.

urij546724 
Відео Гуртом - фільмокрай
Відео Гуртом - фільмокрай


З нами з: 16.03.10
Востаннє: 09.12.16
Повідомлень: 5222

2016-06-20 12:04  
igor911, це єдине що я знайшов. Думаю як комусь захочеться, то знайде і ріпне блурей. Ну і я ніде не вказував, що даний реліз буде відтворюватись ще десь окрім компютерів.
Ваш часовий пояс: GMT + 2 Години

Нова тема   Відповісти