Завантажити та скачати торренти українською


Drudkh - Hades Almighty |‎ Той, хто говорить з iмлою - Pyre era, black! (Split) (2016) [FLAC] | Black Metal

Нові коментарі

Нова тема   Відповісти
Автор Повідомлення
kolpavel 
VIP


З нами з: 04.05.14
Востаннє: 05.12.16
Повідомлень: 1059

2016-06-19 18:07  
Drudkh - Hades Almighty |‎ Той, хто говорить з iмлою - Pyre era, black! (Split) (2016) [FLAC] | Black Metal

Drudkh - Hades Almighty |‎ Той, хто говорить з iмлою - Pyre era, black! (Split) (2016) [FLAC] | Black Metal


Стиль: Black Metal
Країна, місто: Україна, Харків / Норвегiя, Берген
Видавець: Dark Essence Records / Season Of Mist (KAR150CD)
Виконавці:
Роман "Thurios" Благих - вокал, клавішні.
Роман Саєнко - гітара, бас.
Кречет - бас, клавішні.
Влад - ударні, клавішні.

Jan Otto "Janto" Garmanslund - Lead vocals, bass guitar, keyboards
Jørn Inge Tunsberg - Lead guitar, keyboards
Remi Andersen - Drums
Пісні:
    01. Drudkh - Золотий Кінь (Golden Horse) - 08:49
    02. Drudkh - Вогняний Змій (Fiery Serpent) - 08:46
    03. Hades Almighty - Pyre Era, Black! - 04:18
    04. Hades Almighty - Funeral Storm - 06:37
    05. Hades Almighty - Bound - 08:53

Тривалість: 00:37:26
Мова: українська (1-2), англiйська (3-5)
Аудіо-кодек: FLAC
Бітрейт: 1015 кб/с
Джерело: трекер
Додаткова інформація:
ЕАС
Exact Audio Copy V1.1 from 23. June 2015

EAC extraction logfile from 16. June 2016, 14:41

Drudkh/Hades Almighty / One Who Talks With The Fog/Pyre Era, Black!

Used drive : HP DVD Writer 1170d Adapter: 1 ID: 1

Read mode : Secure
Utilize accurate stream : Yes
Defeat audio cache : Yes
Make use of C2 pointers : No

Read offset correction : 6
Overread into Lead-In and Lead-Out : No
Fill up missing offset samples with silence : Yes
Delete leading and trailing silent blocks : No
Null samples used in CRC calculations : Yes
Used interface : Native Win32 interface for Win NT & 2000

Used output format : User Defined Encoder
Selected bitrate : 1024 kBit/s
Quality : Low
Add ID3 tag : No
Command line compressor : C:\Program Files (x86)\Exact Audio Copy\FLAC\FLAC.EXE
Additional command line options : -V -8 -T "Date=%year%" -T "Genre=%genre%" -T"COMMENT=Ripped by Ungern666" -8 -V %source%

TOC of the extracted CD

Track | Start | Length | Start sector | End sector
---------------------------------------------------------
1 | 0:00.00 | 8:49.58 | 0 | 39732
2 | 8:49.58 | 8:46.70 | 39733 | 79252
3 | 17:36.53 | 4:17.70 | 79253 | 98597
4 | 21:54.48 | 6:37.58 | 98598 | 128430
5 | 28:32.31 | 8:53.48 | 128431 | 168453

Range status and errors

Selected range

Filename C:\EAC\Ungern666\Drudkh,Hades Almighty - One Who Talks With The Fog,Pyre Era, Black!.wav

Peak level 100.0 %
Extraction speed 6.4 X
Range quality 100.0 %
Test CRC 98305E1F
Copy CRC 98305E1F
Copy OK

No errors occurred

AccurateRip summary

Track 1 not present in database
Track 2 not present in database
Track 3 not present in database
Track 4 not present in database
Track 5 not present in database

None of the tracks are present in the AccurateRip database

End of status report

---- CUETools DB Plugin V2.1.6

[CTDB TOCID: mmHJTpOSfo8ug1S__1sNgIVRTb8-] found
Submit result: mmHJTpOSfo8ug1S__1sNgIVRTb8- has been confirmed
Track | CTDB Status
1 | (1/1) Accurately ripped
2 | (1/1) Accurately ripped
3 | (1/1) Accurately ripped
4 | (1/1) Accurately ripped
5 | (1/1) Accurately ripped

==== Log checksum 8C42FA21F02B8444F90E0F77464272C773740753BE8584A0341AA4C6DEAA00D9 ====


Якщо Ви справді бажаєте підтримати українське - після прослуховування, якщо музика вам сподобалась, придбайте ліцензійний диск. Підтримаймо вітчизняних виконавців!


Срібний реліз (на рейтинг впливає 50% завантаженого)
 Трекер:    Зареєстрований   

Завантажити / скачати українську музику



відео для новачків



 Зареєстрований:   2016-06-19 18:07
 Розмір:   296 MB 
 Оцінка музики:   8.8/10 (Голосів: 4)
   
Vasulevus 
Новенький


З нами з: 14.08.15
Востаннє: 04.12.16
Повідомлень: 15

2016-07-05 21:34  
Якщо Drudkh звучать чудово, то Hades Almighty взагалі вражають.
Слава Богу, не сирий блек, а справжній якісний запис!

Forward! 
VIP


З нами з: 27.11.11
Востаннє: 05.12.16
Повідомлень: 425

2016-09-11 13:36  
Vasulevus написано:
Слава Богу, не сирий блек, а справжній якісний запис!

Прекрасне речення, починаючи з "слава богу" (це ж норвезький блек, ау) і закінчуючи якісним несирим записом. Як би навіть не згадаю так відразу, хто сьогодні ще записує сирий блек. Той же Taake і той жирно студійки на болванки записує, а тут ще й прог-блек (як це оприділяють метал-архіви). Невже ви очікували щось на зразок Ildjarn?)

Ваш часовий пояс: GMT + 2 Години

Нова тема   Відповісти