Завантажити та скачати торренти українською


Трамбо / Trumbo (2015) 720p Ukr/Eng | Sub Eng

Нові коментарі

Нова тема   Відповісти
Автор Повідомлення
Anonymous 







2016-06-15 00:04  
Трамбо / Trumbo (2015) 720p Ukr/Eng | Sub Eng

Трамбо / Trumbo (2015) 720p Ukr/Eng | Sub Eng

Альтернативний постер


повнорозмірні зображення відкриються по кліку (з натиснутим CTRL чи кліком середньою кнопкою мишки - у новій вкладці)


Жанр: біографічний, драма
Країна: США



Кінокомпанія: Groundswell Productions, ShivHans Pictures
Режисер: Джей Роуч / Jay Roach
Актори: Браян Кренстон / Bryan Cranston, Даян Лейн / Diane Lane, Гелен Міррен / Helen Mirren, Луіс Сі Кей / Louis C.K., Ель Фаннінґ / Elle Fanning, Джон Ґудмен / John Goodman, Майкл Стулбарґ / Michael Stuhlbarg, Алан Т'юдік / Alan Tudyk, Адевале Акіноє-Аґбаже / Adewale Akinnuoye-Agbaje, Дін О'Ґорман / Dean O'Gorman, Девід Мальдонадо / David Maldonado, Джон Гец / John Getz, Лора Фланнері / Laura Flannery, Девід Джеймс Еліот / David James Elliott, Медісон Вульф / Madison Wolfe та інші

Сюжет:
Далтон Трамбо, один з найуспішніших голлівудських сценаристів, автор "Римських канікул" і "Спартака", не підозрював, що чорний список "Hollywood 10" реально існує, поки сам не потрапив туди і не був назавжди викинутий з життя фабрики мрій...

Українські трейлери





Озвучення у цих трейлерах відрізняється від озвучення у релізі


Рейтинг MPAA: R - особам до 17 років обов'язкова присутність батьків або дорослого опікуна
Вікова категорія: 16+

Тривалість: 02:04:39
Якість: 720p [VietHD]
Відео:
кодек:
розмір кадру: 1280 x 694
бітрейт: 5025 Кбіт/с [crf=16.3]

Аудіо # 1:
мова: українська
переклад: багатоголосий закадровий
кодек: 2.0
бітрейт: 192 Кбіт/с

Аудіо # 2:
мова: англійська
переклад: оригінал
кодек: 5.1
бітрейт: 1509 Кбіт/с

Субтитри # 1-2:
мова: англійська (повні, SDH)
тип: програмні (м'які)
формат: *.srt

Збережено оригінальні розділи, як на Blu-ray.
MediaInfo та log
Код:
Complete name               : Trumbo (2015) [Ukr,Eng sub.Eng] 720p [Hurtom].mkv
Format                      : Matroska
Format version              : Version 4 / Version 2
File size                   : 5.86 GiB
Duration                    : 2h 4mn
Overall bit rate            : 6 729 Kbps
Movie name                  : Трамбо / Trumbo (2015) [Ukr,Eng sub.Eng] 720p [Hurtom] by igor911
Encoded date                : UTC 2016-06-15 06:43:00
Writing application         : mkvmerge v9.2.0 ('Photograph') 64bit
Writing library             : libebml v1.3.3 + libmatroska v1.4.4
Cover                       : Yes
Attachments                 : cover.jpg / x264log.txt

Video
ID                          : 1
Format                      : AVC
Format/Info                 : Advanced Video Codec
Format profile              : [email protected]
Format settings, CABAC      : Yes
Format settings, ReFrames   : 9 frames
Codec ID                    : V_MPEG4/ISO/AVC
Duration                    : 2h 4mn
Bit rate                    : 5 025 Kbps
Width                       : 1 280 pixels
Height                      : 694 pixels
Display aspect ratio        : 1.85:1
Frame rate mode             : Constant
Frame rate                  : 23.976 (24000/1001) fps
Color space                 : YUV
Chroma subsampling          : 4:2:0
Bit depth                   : 8 bits
Scan type                   : Progressive
Bits/(Pixel*Frame)          : 0.236
Stream size                 : 4.38 GiB (75%)
Title                       : Трамбо / Trumbo (2015) 720p [VietHD]
Writing library             : core 146 r2538kMod 121396c
Encoding settings           : cabac=1 / ref=9 / deblock=1:-3:-3 / analyse=0x3:0x133 / me=umh / subme=10 / psy=1 / fade_compensate=0.00 / psy_rd=1.05:0.00 / mixed_ref=1 / me_range=24 / chroma_me=1 / trellis=2 / 8x8dct=1 / cqm=0 / deadzone=21,11 / fast_pskip=0 / chroma_qp_offset=-2 / threads=12 / lookahead_threads=2 / sliced_threads=0 / nr=0 / decimate=0 / interlaced=0 / bluray_compat=0 / constrained_intra=0 / fgo=0 / bframes=9 / b_pyramid=2 / b_adapt=2 / b_bias=0 / direct=3 / weightb=1 / open_gop=0 / weightp=2 / keyint=250 / keyint_min=23 / scenecut=40 / intra_refresh=0 / rc_lookahead=60 / rc=crf / mbtree=0 / crf=16.3000 / qcomp=0.65 / qpmin=0 / qpmax=69 / qpstep=4 / vbv_maxrate=62500 / vbv_bufsize=78125 / crf_max=0.0 / nal_hrd=none / filler=0 / ip_ratio=1.30 / pb_ratio=1.20 / aq=3:0.75
Language                    : English
Default                     : Yes
Forced                      : No
Color range                 : Limited
Matrix coefficients         : BT.709

Audio #1
ID                          : 2
Format                      : AC-3
Format/Info                 : Audio Coding 3
Mode extension              : CM (complete main)
Format settings, Endianness : Big
Codec ID                    : A_AC3
Duration                    : 2h 4mn
Bit rate mode               : Constant
Bit rate                    : 192 Kbps
Channel(s)                  : 2 channels
Channel positions           : Front: L R
Sampling rate               : 48.0 KHz
Frame rate                  : 31.250 fps (1536 spf)
Compression mode            : Lossy
Stream size                 : 171 MiB (3%)
Title                       : MVO 2.0 192 kbps [Hurtom-AngryBirdsUA]
Language                    : Ukrainian
Default                     : Yes
Forced                      : No

Audio #2
ID                          : 3
Format                      :
Format/Info                 : Digital Theater Systems
Mode                        : 16
Format settings, Endianness : Big
Codec ID                    : A_DTS
Duration                    : 2h 4mn
Bit rate mode               : Constant
Bit rate                    : 1 509 Kbps
Channel(s)                  : 6 channels
Channel positions           : Front: L C R, Side: L R, LFE
Sampling rate               : 48.0 KHz
Frame rate                  : 93.750 fps (512 spf)
Bit depth                   : 24 bits
Compression mode            : Lossy
Stream size                 : 1.31 GiB (22%)
Title                       : Original, 5.1 1509 kbps
Language                    : English
Default                     : No
Forced                      : No

Text #1
ID                          : 4
Format                      : UTF-8
Codec ID                    : S_TEXT/UTF8
Codec ID/Info               : UTF-8 Plain Text
Duration                    : 1h 58mn
Bit rate                    : 71 bps
Count of elements           : 1929
Stream size                 : 62.1 KiB (0%)
Title                       : Eng full
Language                    : English
Default                     : No
Forced                      : No

Text #2
ID                          : 5
Format                      : UTF-8
Codec ID                    : S_TEXT/UTF8
Codec ID/Info               : UTF-8 Plain Text
Duration                    : 2h 0mn
Bit rate                    : 75 bps
Count of elements           : 2075
Stream size                 : 66.9 KiB (0%)
Title                       : Eng SDH
Language                    : English
Default                     : No
Forced                      : No

Menu
00:00:00.000                : en:Chapter 1
00:07:30.200                : en:Chapter 2
00:14:59.315                : en:Chapter 3
00:20:57.047                : en:Chapter 4
00:26:34.510                : en:Chapter 5
00:33:53.031                : en:Chapter 6
00:37:17.444                : en:Chapter 7
00:44:06.602                : en:Chapter 8
00:49:25.171                : en:Chapter 9
00:55:12.100                : en:Chapter 10
01:02:08.934                : en:Chapter 11
01:08:05.915                : en:Chapter 12
01:16:20.451                : en:Chapter 13
01:23:31.381                : en:Chapter 14
01:29:42.502                : en:Chapter 15
01:34:53.354                : en:Chapter 16
01:39:49.442                : en:Chapter 17
01:47:33.906                : en:Chapter 18
01:52:36.667                : en:Chapter 19
01:58:56.755                : en:Chapter 20


Код:
[info]: frame I:1560  Avg QP:13.59  size:136342
[info]: frame P:35757 Avg QP:15.41  size: 51067
[info]: frame B:142011 Avg QP:16.24  size: 18725
[info]: consecutive B-frames:  1.5%  1.0%  5.8% 18.4% 17.8% 42.5%  6.0%  2.9%  2.1%  2.0%
encoded 179328 frames, 10.59 fps, 5024.76 kb/s, duration 4:42:08.05
Порівняння скріншотів
Оригінал <---------->Цей ріп












Джерело: &
Подяка п.AngryBirdsUA за звук та п.Gelios за звук і альтернативний постер.

Підтримати купівлю інших фільмів можна тут


ЗАЛИШАЙТЕСЬ ЯКОМОГА ДОВШЕ НА РОЗДАЧІ!
СКАЧАВ САМ - ДАЙ СКАЧАТИ ІНШИМ


 Трекер:    Зареєстрований   

Завантажити / скачати фільм українською



відео для новачків



 Зареєстрований:   2016-06-15 11:14
 Розмір:   5.86 GB 
 Оцінка фільму:   6.4/10 (Голосів: 27)
   
Інші релізи
   Трамбо / Trumbo (2015) AVC AngryBirdsUA  12 / 0   1.45 GB   2016-06-13 15:21 
   Трамбо / Trumbo (2015) Gelios  23 / 0   1.45 GB   2016-06-13 15:21 
OksanaUKR1 
Новенький


З нами з: 10.03.16
Востаннє: 04.12.16
Повідомлень: 1

2016-06-26 21:42  
Класний фільм!
Ваш часовий пояс: GMT + 2 Години

Нова тема   Відповісти