Завантажити та скачати торренти українською


Близнюки-дракони / The Twin Dragons / Seong lung wui (1992) Remux 1080p Ukr/Chi

Нові коментарі

Нова тема   Відповісти
Автор Повідомлення
фізик Ужну 
Новенький


З нами з: 18.08.12
Востаннє: 07.12.16
Повідомлень: 7

2016-06-14 10:52  
Близнюки-дракони / The Twin Dragons / Seong lung wui (1992) Remux 1080p Ukr/Chi

Близнюки-дракони / The Twin Dragons / Seong lung wui (1992) Remux 1080p Ukr/Chi


Жанр: бойовик, комедія
Країна: Гонконг



Кінокомпанія: Dimension Films, Golden Way Films Ltd., Hong Kong Film Directors Guild
Режисер: Рінго Лам
Актори: Джекі Чан (Jackie Chan), Меггі Чун, Тедді Робін Кван, Ентоні Чан, Філіп Чань, Сільвія Чан, Альфред Чун, Чи Люн «Джейкоб» Чунг, Танг Чо «Джо» Чунг, Девід Чіанг

Сюжет:
Джекі Чан виконує відразу дві ролі - двох абсолютно однакових близнюків, розлучених при народженні і які опинилися в різних сім'ях і по різні боки Тихого океану. Один з близнюків - фахівець з бойових мистецтв, хуліган і задирака, працює автомеханіком в гаражі готелю, в якому зупиняється під час гастролей в Гонконзі інший - знаменитий музикант всесвітньо відомий диригент з Нью-Йорка. Коли вони випадково зустрічаються, починається неймовірна пригода!


Тривалість: 01:44:42
Якість: Remux
Відео:
кодек:
розмір кадру: 1920 х 1080
бітрейт: 24,9 Mбіт/с

Аудіо # 1: &
мова: українська
переклад: двоголосий закадровий
кодек: 2.0
бітрейт: 192 Кбіт/с

Аудіо # 2:
мова: китайська
переклад: оригінал
кодек: -HD MA 5.1
бітрейт: 1758 Кбіт/с
MediaInfo
D:\Twin Dragons Remux 1080p (ukr chi) [Hurtom] .mkv
General
Unique ID : 182354255761106645765684957304913096584 (0x893026F4546BABCDBF30446B5E9B6F88)
Complete name : D:\Twin Dragons Remux 1080p (ukr eng) hurtom .mkv
Format : Matroska
Format version : Version 4 / Version 2
File size : 19.7 GiB
Duration : 1h 44mn
Overall bit rate mode : Variable
Overall bit rate : 26.9 Mbps
Encoded date : UTC 2016-06-14 04:18:53
Writing application : mkvmerge v7.0.0 ('Where We Going') 64bit built on Jun 9 2014 15:16:27
Writing library : libebml v1.3.0 + libmatroska v1.4.1
DURATION : 01:44:35.648000000
NUMBER_OF_FRAMES : 196114
NUMBER_OF_BYTES : 150615552
_STATISTICS_WRITING_APP : mkvmerge v7.0.0 ('Where We Going') 64bit built on Jun 9 2014 15:16:27
_STATISTICS_WRITING_DATE_UTC : 2016-06-14 04:18:53
_STATISTICS_TAGS : BPS DURATION NUMBER_OF_FRAMES NUMBER_OF_BYTES
Video #1
ID : 1
Format : AVC
Format/Info : Advanced Video Codec
Format profile : [email protected]
Format settings, CABAC : Yes
Format settings, ReFrames : 2 frames
Codec ID : V_MPEG4/ISO/AVC
Duration : 1h 44mn
Bit rate mode : Variable
Bit rate : 24.9 Mbps
Width : 1 920 pixels
Height : 1 080 pixels
Display aspect ratio : 16:9
Frame rate : 23.976 fps
Color space : YUV
Chroma subsampling : 4:2:0
Bit depth : 8 bits
Scan type : Progressive
Bits/(Pixel*Frame) : 0.495
Stream size : 18.0 GiB (91%)
Default : Yes
Forced : No
Audio #1
ID : 2
Format : AC-3
Format/Info : Audio Coding 3
Mode extension : CM (complete main)
Codec ID : A_AC3
Duration : 1h 44mn
Bit rate mode : Constant
Bit rate : 192 Kbps
Channel(s) : 2 channels
Channel positions : Front: L R
Sampling rate : 48.0 KHz
Bit depth : 16 bits
Compression mode : Lossy
Stream size : 144 MiB (1%)
Language : Ukrainian
Default : Yes
Forced : No
Audio #2
ID : 3
Format :
Format/Info : Digital Theater Systems
Format profile : MA / Core
Codec ID : A_DTS
Duration : 1h 44mn
Bit rate mode : Variable
Bit rate : 1 758 Kbps / 1 509 Kbps
Channel(s) : 6 channels
Channel positions : Front: L C R, Side: L R, LFE
Sampling rate : 48.0 KHz
Bit depth : 16 bits
Compression mode : Lossless / Lossy
Language : Chinese
Default : No
Forced : No
Скріншоти







Джерело: &
Дякую п.РОМЕО за запис з ТБ та п.Arsenfpu за зведення звуку.
Особиста оцінка: 8 - мені сподобалося


Золотий реліз (завантажене не впливає на рейтинг)
 Трекер:    Зареєстрований   

Завантажити / скачати фільм українською



відео для новачків



 Зареєстрований:   2016-06-14 19:11
 Розмір:   19.66 GB 
 Оцінка фільму:   8/10 (Голосів: 1)
   
Інші релізи
igor911 
Відео Гуртом
Відео Гуртом


З нами з: 18.01.08
Востаннє: 08.12.16
Повідомлень: 5176

2016-06-14 14:10  
1.
фізик Ужну написано:
1080p

фізик Ужну написано:
Файл: Twin Dragons Remux 1080p

я так розумію, що це всетаки ремукс, а не ріп - виправте заголовки на Remux 1080p
2.
фізик Ужну написано:
Аудіо # 1:
мова: українська

а в контейнері вона друга -
Цитата:
Audio #3
ID : 3
Format : AC-3
...
Language : Ukrainian
треба перезібрати контейнер, виставивши українську доріжку першою та за замовчанням
3. В описі укр.звуку
фізик Ужну написано:
кодек: 2.0
виправити на 2.0
4. Скріншоти у цьому розділі мають бути у форматі png, перероби, будь ласка.

Bruce_Nolan 
Свій


З нами з: 17.06.14
Востаннє: 06.12.16
Повідомлень: 120

2016-09-07 21:19  
Повна версія це клас, а от 2-х голоска це погано, може по УКРАЇН'і чи ICTV покажуть колись.
Ваш часовий пояс: GMT + 2 Години

Нова тема   Відповісти