Завантажити та скачати торренти українською


Проти шторму / The Finest Hours (2016) 1080p 3D [Half OverUnder] Ukr/Eng | Sub Ukr/Eng

Нові коментарі

Нова тема   Відповісти
Автор Повідомлення
-VipeR- 
VIP


З нами з: 17.07.08
Востаннє: 04.12.16
Повідомлень: 275

2016-06-08 11:31  
Проти шторму / The Finest Hours (2016) 1080p 3D [Half OverUnder] Ukr/Eng | Sub Ukr/Eng

Проти шторму / The Finest Hours (2016) 1080p 3D [Half OverUnder] Ukr/Eng | Sub Ukr/Eng


Жанр: екшн, драма, історичний
Країна: США



Кінокомпанія: Bergsten Music, Walt Disney Pictures, Whitaker Entertainment
Режисер: Крейґ Ґіллеспі
Актори: Кріс Пайн, Кейсі Аффлек, Бен Фостер, Ерік Бана, Холлідей Грейнджер, Джон Ортіс, Кайл Галлнер, Джон Магаро, Грем МакТавіш, Майкл Реймонд-Джеймс

Сюжет:
Сюжет фільму заснований на реальних подіях, що відбулися в 1952 році, коли співробітники берегової охорони в самий розпал шторму, використовуючи дерев'яні човни, намагалися врятувати екіпаж двох нафтових танкерів.


Тривалість: 01:57:21
Якість: 1080p 3D [HalfOverUnder] ash61
Відео:
кодек:
розмір кадру: 1920 х 1080
бітрейт: 11 мбіт/с

Аудіо # 1:
мова: українська
переклад: професійний дубльований
кодек: 5.1
бітрейт: 1536 кб/с

Аудіо # 2:
мова: англійська
переклад: оригінал
кодек: 5.1
бітрейт: 640 кб/с

Субтитри #1-2:
мова: українська (форсовані, повні)
тип: програмні (м'які)
тип: *.srt

Субтитри #3-4:
мова: англійська (повні, SDH)
тип: програмні (м'які)
тип: *.srt
MediaInfo
Код:
General
Unique ID                      : 250303044491676203084565591142673441588 (0xBC4E9CE41DD07616904A34075CD86334)
Complete name                  : D:\3D\Художні\The Finest Hours (2016) 1080p 3D [HalfOverUnder] [UKR_ENG] [Hurtom].mkv
Format                         : Matroska
Format version                 : Version 4 / Version 2
File size                      : 10.8 GiB
Duration                       : 1h 57mn
Overall bit rate               : 13.2 Mbps
Movie name                     : Проти шторму у 3D (2016)
Encoded date                   : UTC 2016-08-22 09:52:17
Writing application            : mkvmerge v8.8.0 ('Wind at my back') 64bit
Writing library                : libebml v1.3.3 + libmatroska v1.4.4
Cover                          : Yes
Attachments                    : cover

Video
ID                             : 1
Format                         : AVC
Format/Info                    : Advanced Video Codec
Format profile                 : [email protected]
Format settings, CABAC         : Yes
Format settings, ReFrames      : 4 frames
Codec ID                       : V_MPEG4/ISO/AVC
Duration                       : 1h 57mn
Bit rate                       : 11.0 Mbps
Width                          : 1 920 pixels
Height                         : 1 080 pixels
Display aspect ratio           : 16:9
Frame rate mode                : Constant
Frame rate                     : 23.976 (24000/1001) fps
Color space                    : YUV
Chroma subsampling             : 4:2:0
Bit depth                      : 8 bits
Scan type                      : Progressive
Bits/(Pixel*Frame)             : 0.221
Stream size                    : 9.02 GiB (84%)
Title                          : by Ash61
Writing library                : core 146 r2538 121396c
Encoding settings              : cabac=1 / ref=4 / deblock=1:-3:-3 / analyse=0x3:0x113 / me=umh / subme=10 / psy=1 / psy_rd=1.00:0.00 / mixed_ref=1 / me_range=32 / chroma_me=1 / trellis=2 / 8x8dct=1 / cqm=0 / deadzone=21,11 / fast_pskip=1 / chroma_qp_offset=-2 / threads=12 / lookahead_threads=3 / sliced_threads=0 / nr=0 / decimate=1 / interlaced=0 / bluray_compat=0 / constrained_intra=0 / bframes=12 / b_pyramid=2 / b_adapt=2 / b_bias=0 / direct=3 / weightb=1 / open_gop=0 / weightp=2 / keyint=250 / keyint_min=23 / scenecut=40 / intra_refresh=0 / rc_lookahead=60 / rc=crf / mbtree=1 / crf=15.0 / qcomp=0.70 / qpmin=0 / qpmax=69 / qpstep=4 / vbv_maxrate=40000 / vbv_bufsize=30000 / crf_max=0.0 / nal_hrd=none / filler=0 / frame-packing=4 / ip_ratio=1.40 / aq=1:0.70
Language                       : English
Default                        : Yes
Forced                         : No

Audio #1
ID                             : 2
Format                         :
Format/Info                    : Digital Theater Systems
Mode                           : 16
Format settings, Endianness    : Big
Codec ID                       : A_DTS
Duration                       : 1h 57mn
Bit rate mode                  : Constant
Bit rate                       : 1 509 Kbps
Channel(s)                     : 6 channels
Channel positions              : Front: L C R, Side: L R, LFE
Sampling rate                  : 48.0 KHz
Frame rate                     : 93.750 fps (512 spf)
Bit depth                      : 24 bits
Compression mode               : Lossy
Stream size                    : 1.24 GiB (11%)
Title                          : 5.1 @ 1536 kbps
Language                       : Ukrainian
Default                        : Yes
Forced                         : Yes

Audio #2
ID                             : 3
Format                         : AC-3
Format/Info                    : Audio Coding 3
Mode extension                 : CM (complete main)
Format settings, Endianness    : Big
Codec ID                       : A_AC3
Duration                       : 1h 57mn
Bit rate mode                  : Constant
Bit rate                       : 640 Kbps
Channel(s)                     : 6 channels
Channel positions              : Front: L C R, Side: L R, LFE
Sampling rate                  : 48.0 KHz
Frame rate                     : 31.250 fps (1536 spf)
Compression mode               : Lossy
Stream size                    : 537 MiB (5%)
Title                          : Original - BD 3D
Language                       : English
Default                        : No
Forced                         : No

Text #1
ID                             : 4
Format                         : UTF-8
Codec ID                       : S_TEXT/UTF8
Codec ID/Info                  : UTF-8 Plain Text
Duration                       : 1h 49mn
Bit rate                       : 1 bps
Count of elements              : 13
Stream size                    : 1 013 Bytes (0%)
Title                          : Forced
Language                       : Ukrainian
Default                        : Yes
Forced                         : Yes

Text #2
ID                             : 5
Format                         : UTF-8
Codec ID                       : S_TEXT/UTF8
Codec ID/Info                  : UTF-8 Plain Text
Duration                       : 1h 49mn
Bit rate                       : 75 bps
Count of elements              : 1167
Stream size                    : 60.7 KiB (0%)
Title                          : Full
Language                       : Ukrainian
Default                        : No
Forced                         : No

Text #3
ID                             : 6
Format                         : UTF-8
Codec ID                       : S_TEXT/UTF8
Codec ID/Info                  : UTF-8 Plain Text
Duration                       : 1h 47mn
Bit rate                       : 47 bps
Count of elements              : 1152
Stream size                    : 37.2 KiB (0%)
Title                          : Full
Language                       : English
Default                        : No
Forced                         : No

Text #4
ID                             : 7
Format                         : UTF-8
Codec ID                       : S_TEXT/UTF8
Codec ID/Info                  : UTF-8 Plain Text
Duration                       : 1h 55mn
Bit rate                       : 54 bps
Count of elements              : 1616
Stream size                    : 46.3 KiB (0%)
Title                          : SDH
Language                       : English
Default                        : No
Forced                         : No

Menu
00:00:00.000                   : en:00:00:00.000
00:09:13.887                   : en:00:09:13.887
00:14:22.195                   : en:00:14:22.195
00:19:52.108                   : en:00:19:52.108
00:22:56.792                   : en:00:22:56.792
00:28:34.379                   : en:00:28:34.379
00:34:05.210                   : en:00:34:05.210
00:36:59.384                   : en:00:36:59.384
00:42:50.902                   : en:00:42:50.902
00:45:01.157                   : en:00:45:01.157
00:46:59.442                   : en:00:46:59.442
00:48:44.463                   : en:00:48:44.463
00:50:12.551                   : en:00:50:12.551
00:55:53.141                   : en:00:55:53.141
01:04:47.967                   : en:01:04:47.967
01:08:58.634                   : en:01:08:58.634
01:11:38.836                   : en:01:11:38.836
01:16:16.489                   : en:01:16:16.489
01:20:30.325                   : en:01:20:30.325
01:33:30.480                   : en:01:33:30.480
01:42:27.641                   : en:01:42:27.641
Скріншоти
Джерело: &

За доріжку подяка пану AngryBirdsUA

Відео для перегляду на 3D обладнанні!


 Трекер:    Зареєстрований   

Завантажити / скачати фільм українською



відео для новачків



 Зареєстрований:   2016-08-22 12:33
 Розмір:   10.78 GB 
 Оцінка фільму:   9/10 (Голосів: 16)
   
Інші релізи
   Проти шторму / The Finest Hours (2016) 720p Ukr/Eng | Sub Ukr/Eng 11FrYkT  17 / 0   7.46 GB   2016-07-26 17:58 
   Проти шторму / The Finest Hours (2016) 1080p Ukr/Eng | Sub Ukr/Eng 11FrYkT  12 / 0   15.95 GB   2016-07-26 17:56 
   Проти шторму / The Finest Hours (2016) Gelios  84 / 0   1.45 GB   2016-07-26 17:53 
   Проти шторму / The Finest Hours (2016) [MP4, 640x] apvAltisimo  0 / 0   748 MB   2016-06-08 14:20 
   Проти шторму / The Finest Hours (2016) AVC AngryBirdsUA  26 / 0   1.3 GB   2016-06-07 20:00 
vovang6 
Свій


З нами з: 27.08.12
Востаннє: 04.12.16
Повідомлень: 60

2016-06-10 16:22  
не сподобався, нудний та не цiкавий.
hetzendorf 
Свій


З нами з: 23.07.15
Востаннє: 03.12.16
Повідомлень: 148

2016-06-12 19:48  
Чудовий пригодницький фільм про мужніх і самовідданих людей. 10/10
kelebro666 
Новенький


З нами з: 27.10.10
Востаннє: 30.11.16
Повідомлень: 8

2016-06-12 22:11  
Класний фільм. Дивився вдома в 3D. Тримав в напрузі до самого кінця. Мені сподобався.
І зовсім він не нудний. Рекомендую.

_sergius 
Свій


З нами з: 26.03.11
Востаннє: 29.11.16
Повідомлень: 66

2016-07-14 09:05  
Реально сподобався! Хороше якісне кіно.
Єдине про що жалкую, це те що тільки сьогодні натрапив на цю роздачу. Бо перед цим скачав просто в 1080p, так і подивився. А мабуть, хвилі в 3D просто бомбезно віиглядають...

QWERTYJJJJJJ 
Поважний учасник


З нами з: 06.11.12
Востаннє: 17.11.16
Повідомлень: 198

2016-07-26 18:42  
Сьогодні шестиканалка з'явилась. Оновлення буде?)
Anubys 
VIP


З нами з: 09.11.09
Востаннє: 04.12.16
Повідомлень: 277

2016-07-27 17:41  
Чудове кіно. Варте перегляду однозначно. Прокат проспав, а було б значно краще дивитись це на великому екрані.
-VipeR- 
VIP


З нами з: 17.07.08
Востаннє: 04.12.16
Повідомлень: 275

2016-08-22 12:37  
Реліз оновлено
Звукову доріжку замінено на 5.1 1536 кб/с
Додано українські субтитри

Ваш часовий пояс: GMT + 2 Години

Нова тема   Відповісти