Завантажити та скачати торренти українською


13 годин: Таємні воїни Бенгазі / 13 Hours: The Secret Soldiers of Benghazi (2016) 1080p Ukr/Eng | Sub Ukr/Eng/Fre/Spa/Por/Dan

Нові коментарі

Нова тема   Відповісти
Автор Повідомлення
Anonymous 







2016-06-04 10:03  
13 годин: Таємні воїни Бенгазі / 13 Hours: The Secret Soldiers of Benghazi (2016)
1080p Ukr/Eng | Sub Ukr/Eng/Fre/Spa/Por/Dan




Альтернативний постер


повнорозмірні зображення відкриються по кліку (з натиснутим CTRL чи кліком середньою кнопкою мишки - у новій вкладці)


Жанр: екшн, драма, трилер
Країна: США



Кінокомпанія: 3 Arts Entertainment, Bay Films, Dune Films
Режисер: Майкл Бей / Michael Bay
Актори: Джон Красінскі / John Krasinski, Джеймс Бедж Дейл / James Badge Dale, Пабло Шрайбер / Pablo Schreiber, Девід Денман / David Denman, Домінік Фумуса / Dominic Fumusa, Макс Мартіні / Max Martini, Алексія Бальер / Alexia Barlier, Девід Костабайл / David Costabile, Пейман Моааді / Peyman Moaadi, Метт Летчер / Matt Letscher та інші

Сюжет:
2012 рік. Бенгазі, Лівія. Група ісламістів вирішує "відмітити" події 11 вересня нападом на американське представництво та таємну базу ЦРУ. Шістьом бійцям з елітного спецзагону наказано втрутитися тільки в крайньому випадку. Але коли під загрозою опиняються десятки життів громадян США, обов'язок і совість беруть гору над субординацією. І мужні солдати без коливань вступають в бій з загоном супротивника, що багатократно переважає їх за чисельністю. Бій, який для всіх шістьох, швидше за все, стане останнім.

Офіційні українські трейлери




Рейтинг MPAA: R - особам до 17 років обов'язкова присутність батьків або дорослого опікуна
Вікова категорія: 16+

Тривалість: 02:24:29
Якість: 1080p [VietHD]
Відео:
кодек:
розмір кадру: 1920 х 800
бітрейт: 15 Мбіт/с [crf=18]

Аудіо # 1:
мова: українська
переклад: професійний дубльований | LeDoyen Studio
кодек: 5.1
бітрейт: 640 Кбіт/с
Інформація про дубляж
Переклад: Олег Пашин
Режисер дубляжу: Костянтин Лінартович
Звукорежисер: Нікіта Будаш
Координатор дубляжу: Мирослава Сидорук
Ролі дублювали: Джек – Роман Чорний, Рон – Дмитро Завадський, Танто – Дмитро Лінартович, Шеф Боб – Михайло Кришталь, Оз – Кирило Нікітенко, Бун – Андрій Ісаєнко, Посол Стівенс – Дмитро Вікулов; а також: Володимир Канівець, Ірина Ткаленко, Володимир Паляниця, Андрій Соболєв, Анатолій Тихомиров, Сергій Солопай, Софія Лозіна, Юрій Кудрявець, Катерина Качан, Олексій Череватенко, Ігор Волков, Юрій Сосков, Галина Дубок та інші.
Фільм надано компанією Paramount Pictures, дубльовано і зміксовано студією LeDoyen на замовлення компаніїї Paramount Pictures.
Аудіо # 2:
мова: англійська
переклад: оригінал
кодек: 5.1
бітрейт: 640 Кбіт/с

Субтитри #1:
мова: українська
тип: програмні (м'які)
формат: *.srt

Субтитри #2-7:
мова: англійська (повні, SDH), французька, іспанська, португальська, данська
тип: програмні (м'які)
формат: *.srt

Збережено оригінальні розділи, як на Blu-ray.
MediaInfo
[code]Complete name : 13 Hours - The Secret Soldiers of Benghazi (2016) [Ukr,Eng sub.Ukr,Multi] 1080p [Hurtom&HDClub].mkv
Format : Matroska
Format version : Version 4 / Version 2
File size : 16.5 GiB
Duration : 2h 24mn
Overall bit rate : 16.3 Mbps
Movie name : 13 годин: Таємні воїни Бенгазі / 13 Hours: The Secret Soldiers of Benghazi (2016) [Ukr,Eng sub.Ukr,Eng,Multi] 1080p [Hurtom & HDClub]
Encoded date : UTC 2016-06-04 08:21:14
Writing application : mkvmerge v9.2.0 ('Photograph') 64bit
Writing library : libebml v1.3.3 + libmatroska v1.4.4
Cover : Yes
Attachments : cover.jpg

Video
ID : 1
Format : AVC
Format/Info : Advanced Video Codec
Format profile : [email protected]
Format settings, CABAC : Yes
Format settings, ReFrames : 5 frames
Codec ID : V_MPEG4/ISO/AVC
Duration : 2h 24mn
Bit rate : 15.0 Mbps
Width : 1 920 pixels
Height : 800 pixels
Display aspect ratio : 2.40:1
Frame rate mode : Constant
Frame rate : 23.976 (24000/1001) fps
Color space : YUV
Chroma subsampling : 4:2:0
Bit depth : 8 bits
Scan type : Progressive
Bits/(Pixel*Frame) : 0.409
Stream size : 15.2 GiB (92%)
Title : 13 годин: Таємні воїни Бенгазі / 13 Hours: The Secret Soldiers of Benghazi (2016) 1080p [VietHD]
Writing library : core 148 r2665kMod a01e339
Encoding settings : cabac=1 / ref=5 / deblock=1:-3:-3 / analyse=0x3:0x133 / me=umh / subme=10 / psy=1 / fade_compensate=0.00 / psy_rd=1.00:0.00 / mixed_ref=1 / me_range=24 / chroma_me=1 / trellis=2 / 8x8dct=1 / cqm=0 / deadzone=21,11 / fast_pskip=0 / chroma_qp_offset=-2 / threads=12 / lookahead_threads=2 / sliced_threads=0 / nr=0 / decimate=0 / interlaced=0 / bluray_compat=0 / constrained_intra=0 / fgo=0 / bframes=8 / b_pyramid=2 / b_adapt=2 / b_bias=0 / direct=3 / weightb=1 / open_gop=0 / weightp=2 / keyint=250 / keyint_min=23 / scenecut=40 / intra_refresh=0 / rc_lookahead=60 / rc=crf / mbtree=0 / crf=18.0000 / qcomp=0.65 / qpmin=0 / qpmax=69 / qpstep=4 / vbv_maxrate=62500 / vbv_bufsize=78125 / crf_max=0.0 / nal_hrd=none / filler=0 / ip_ratio=1.30 / pb_ratio=1.20 / aq=3:0.70 / zones=4345,4410,b=1.4/4890,5058,b=1.4/61629,63348,b=1.5/65244,65508,b=1.2/69255,69339,b=1.5/70047,70143,b=1.3/70311,70407,b=1.3/73734,73792,b=1.4/81085,82156,b=1.5/85229,85805,b=1.5/88271,89639,b=1.5/105296,106520,b=1.6/108264,109224,b=1.5/132645,135021,b=1.6/150747,154005,b=1.5/199066,207860,b=0.5
Language : English
Default : Yes
Forced : No
Color range : Limited
Matrix coefficients : BT.709

Audio #1
ID : 2
Format : AC-3
Format/Info : Audio Coding 3
Mode extension : CM (complete main)
Format settings, Endianness : Big
Codec ID : A_AC3
Duration : 2h 24mn
Bit rate mode : Constant
Bit rate : 640 Kbps
Channel(s) : 6 channels
Channel positions : Front: L C R, Side: L R, LFE
Sampling rate : 48.0 KHz
Frame rate : 31.250 fps (1536 spf)
Compression mode : Lossy
Stream size : 661 MiB (4%)
Title : Dub [LeDoyen, Blu-ray CEE] 5.1 640 kbps
Language : Ukrainian
Default : Yes
Forced : No

Audio #2
ID : 3
Format : AC-3
Format/Info : Audio Coding 3
Mode extension : CM (complete main)
Format settings, Endianness : Big
Codec ID : A_AC3
Duration : 2h 24mn
Bit rate mode : Constant
Bit rate : 640 Kbps
Channel(s) : 6 channels
Channel positions : Front: L C R, Side: L R, LFE
Sampling rate : 48.0 KHz
Frame rate : 31.250 fps (1536 spf)
Compression mode : Lossy
Stream size : 661 MiB (4%)
Title : Original, 5.1 640 kbps
Language : English
Default : No
Forced : No

Text #1
ID : 4
Format : UTF-8
Codec ID : S_TEXT/UTF8
Codec ID/Info : UTF-8 Plain Text
Duration : 2h 23mn
Bit rate : 114 bps
Count of elements : 2153
Stream size : 121 KiB (0%)
Language : Ukrainian
Default : No
Forced : No

Text #2
ID : 5
Format : UTF-8
Codec ID : S_TEXT/UTF8
Codec ID/Info : UTF-8 Plain Text
Duration : 2h 14mn
Bit rate : 67 bps
Count of elements : 2043
Stream size : 66.3 KiB (0%)
Language : English
Default : No
Forced : No

Text #3
ID : 6
Format : UTF-8
Codec ID : S_TEXT/UTF8
Codec ID/Info : UTF-8 Plain Text
Duration : 2h 15mn
Bit rate : 73 bps
Count of elements : 2274
Stream size : 72.7 KiB (0%)
Title : SDH
Language : English
Default : No
Forced : No

Text #4
ID : 7
Format : UTF-8
Codec ID : S_TEXT/UTF8
Codec ID/Info : UTF-8 Plain Text
Duration : 2h 19mn
Bit rate : 65 bps
Count of elements : 2327
Stream size : 66.8 KiB (0%)
Language : French
Default : No
Forced : No

Text #5
ID : 8
Format : UTF-8
Codec ID : S_TEXT/UTF8
Codec ID/Info : UTF-8 Plain Text
Duration : 2h 19mn
Bit rate : 62 bps
Count of elements : 1809
Stream size : 63.5 KiB (0%)
Language : Spanish
Default : No
Forced : No

Text #6
ID : 9
Format : UTF-8
Codec ID : S_TEXT/UTF8
Codec ID/Info : UTF-8 Plain Text
Duration : 2h 19mn
Bit rate : 55 bps
Count of elements : 1836
Stream size : 56.2 KiB (0%)
Language : Portuguese
Default : No
Forced : No

Text #7
ID : 10
Format : UTF-8
Codec ID : S_TEXT/UTF8
Codec ID/Info : UTF-8 Plain Text
Duration : 2h 18mn
Bit rate : 57 bps
Count of elements : 1487
Stream size : 57.9 KiB (0%)
Language : Danish
Default : No
Forced : No

Menu
00:00:00.000 : en:00:00:00.000
00:04:47.662 : en:00:04:47.662
00:09:01.541 : en:00:09:01.541
00:15:31.556 : en:00:15:31.556
00:21:12.229 : en:00:21:12.229
00:26:48.774 : en:00:26:48.774
00:31:22.756 : en:00:31:22.756
00:34:20.058 : en:00:34:20.058
00:39:36.124 : en:00:39:36.124
00:47:12.872 : en:00:47:12.872
00:53:59.027 : en:00:53:59.027
01:02:27.744 : en:01:02:27.744
01:10:03.324 : en:01:10:03.324
01:23:02.477 : en:01:23:02.477
01:27:11.101 : en:01:27:11.101
01:34:50.685 : en:01:34:50.685
01:42:36.359 : en:01:42:36.359
01:48:08.148 : en:01:48:08.148
01:53:47.279 : en:01:53:47.279
02:00:22.882 : en:02:00:22.882
02:07:19.465 : en:02:07:19.465
02:18:25.422 : en:02:18:25.422[/code
Оригінал <----------> Ріп







Джерело: &


 Трекер:    Зареєстрований   

Завантажити / скачати фільм українською



відео для новачків



 Зареєстрований:   2016-06-04 10:58
 Розмір:   16.48 GB 
 Оцінка фільму:   6.5/10 (Голосів: 31)
   
bandera77 
VIP


З нами з: 14.03.09
Востаннє: 07.12.16
Повідомлень: 266

2016-06-05 10:06  
Подивився вчора фільм. Якщо чесно - не вставив. Фільм ні про що. Спочатку поливали брудом Каддафі, який зробив гарну для життя країну, потім пограбували її... Далі взагалі якісь незрозумілі та непослідовні дії. Хто напав на амбасаду? Для чого? Сам бій - не вражає. І в самому кінці мінометний обстріл, який стався через непрофесійність охорони... Потім якіс емоції після вибуху, які просто не чіпляють....
Ви мене вибачте, але в цьому жанрі цікавіше дивитись "9-ту роту"... Оцінка 5,5/10

Kovex 
Відео Гуртом - підтримка та поширення
Відео Гуртом - підтримка та поширення


З нами з: 01.09.09
Востаннє: 06.12.16
Повідомлень: 401

2016-06-13 02:10  
Один раз можна переглянути.
serio321 
Localize Team
Localize Team


З нами з: 10.02.12
Востаннє: 06.12.16
Повідомлень: 26

2016-06-16 03:35  
bandera77
Пане особистість, Янукович теж зробив гарне життя Wink (2) Тільки я не розумію що не зрозумілого то... Гадаєш реальна війна така епічна? Можеш поїхати в ато і там глянути що таке сидіти в дуплі і чекати доки ракета впаде на голову. Як на мене усю нюанси гарно показані, і фільм вийшов досить крутим зважаючи на те що в ньому реальна історія.

Ваш часовий пояс: GMT + 2 Години

Нова тема   Відповісти