Завантажити та скачати торренти українською


13 годин: Таємні воїни Бенгазі / 13 Hours: The Secret Soldiers of Benghazi (2016) 720p Ukr/Eng | Sub Ukr/Eng/Fre/Por/Dan/Spa

Нові коментарі

Нова тема   Відповісти
Автор Повідомлення
Anonymous 







2016-06-03 19:06  
13 годин: Таємні воїни Бенгазі / 13 Hours: The Secret Soldiers of Benghazi (2016)
720p Ukr/Eng | Sub Ukr/Eng/Fre/Por/Dan/Spa




Альтернативний постер


повнорозмірні зображення відкриються по кліку (з натиснутим CTRL чи кліком середньою кнопкою мишки - у новій вкладці)


Жанр: екшн, драма, трилер
Країна: США



Кінокомпанія: 3 Arts Entertainment, Bay Films, Dune Films
Режисер: Майкл Бей / Michael Bay
Актори: Джон Красінскі / John Krasinski, Джеймс Бедж Дейл / James Badge Dale, Пабло Шрайбер / Pablo Schreiber, Девід Денман / David Denman, Домінік Фумуса / Dominic Fumusa, Макс Мартіні / Max Martini, Алексія Бальер / Alexia Barlier, Девід Костабайл / David Costabile, Пейман Моааді / Peyman Moaadi, Метт Летчер / Matt Letscher та інші

Сюжет:
2012 рік. Бенгазі, Лівія. Угрупування ісламістів вирішує "відмітити" події 11 вересня нападом на американське представництво та таємну базу ЦРУ. Шістьом бійцям з елітного спецзагону наказано втрутитися тільки в крайньому випадку. Але коли під загрозою опиняються десятки життів громадян США, обов'язок і совість беруть гору над субординацією. І мужні солдати без коливань вступають в бій з загоном супротивника, що багатократно переважає їх за чисельністю. Бій, який для всіх шістьох, швидше за все, стане останнім.

Офіційні українські трейлери




Рейтинг MPAA: R - особам до 17 років обов'язкова присутність батьків або дорослого опікуна
Вікова категорія: 16+

Тривалість: 02:24:29
Якість: 720p [VietHD]
Відео:
кодек:
розмір кадру: 1280 х 534
бітрейт: 8057 Кбіт/с [crf=16.5]

Аудіо # 1:
мова: українська
переклад: професійний дубльований | LeDoyen Studio
кодек: 5.1
бітрейт: 640 Кбіт/с
Інформація про дубляж
Переклад: Олег Пашин
Режисер дубляжу: Костянтин Лінартович
Звукорежисер: Нікіта Будаш
Координатор дубляжу: Мирослава Сидорук
Ролі дублювали: Джек – Роман Чорний, Рон – Дмитро Завадський, Танто – Дмитро Лінартович, Шеф Боб – Михайло Кришталь, Оз – Кирило Нікітенко, Бун – Андрій Ісаєнко, Посол Стівенс – Дмитро Вікулов; а також: Володимир Канівець, Ірина Ткаленко, Володимир Паляниця, Андрій Соболєв, Анатолій Тихомиров, Сергій Солопай, Софія Лозіна, Юрій Кудрявець, Катерина Качан, Олексій Череватенко, Ігор Волков, Юрій Сосков, Галина Дубок та інші.
Фільм надано компанією Paramount Pictures, дубльовано і зміксовано студією LeDoyen на замовлення компаніїї Paramount Pictures.
Аудіо # 2:
мова: англійська
переклад: оригінал
кодек: 5.1
бітрейт: 640 Кбіт/с

Субтитри #1:
мова: українська
тип: програмні (м'які)
формат: *.srt

Субтитри #2-7:
мова: англійська (повні, SDH), французька, португальська, данська, іспанська
тип: програмні (м'які)
формат: *.srt

Збережено оригінальні розділи, як на Blu-ray.
MediaInfo
Код:
Complete name               : 13 Hours. The Secret Soldiers of Benghazi (2016) [Ukr,Eng sub.Ukr,Eng,Multi] 720p [Hurtom&HDClub].mkv
Format                      : Matroska
Format version              : Version 4 / Version 2
File size                   : 9.43 GiB
Duration                    : 2h 24mn
Overall bit rate            : 9 340 Kbps
Movie name                  : 13 годин: Таємні солдати Бенгазі / 13 Hours: The Secret Soldiers of Benghazi (2016) [Ukr,Eng sub.Ukr,Eng,Multi] 720p [Hurtom & HDClub]
Encoded date                : UTC 2016-06-03 18:32:57
Writing application         : mkvmerge v9.2.0 ('Photograph') 64bit
Writing library             : libebml v1.3.3 + libmatroska v1.4.4
Cover                       : Yes
Attachments                 : cover.jpg

Video
ID                          : 1
Format                      : AVC
Format/Info                 : Advanced Video Codec
Format profile              : [email protected]
Format settings, CABAC      : Yes
Format settings, ReFrames   : 12 frames
Codec ID                    : V_MPEG4/ISO/AVC
Duration                    : 2h 24mn
Bit rate                    : 8 057 Kbps
Width                       : 1 280 pixels
Height                      : 534 pixels
Display aspect ratio        : 2.40:1
Frame rate mode             : Constant
Frame rate                  : 23.976 (24000/1001) fps
Color space                 : YUV
Chroma subsampling          : 4:2:0
Bit depth                   : 8 bits
Scan type                   : Progressive
Bits/(Pixel*Frame)          : 0.492
Stream size                 : 8.13 GiB (86%)
Title                       : 13 годин: Таємні солдати Бенгазі / 13 Hours: The Secret Soldiers of Benghazi (2016) 720p [VietHD]
Writing library             : core 148 r2692.11 7386685 VietHD_Custom_64
Encoding settings           : cabac=1 / ref=12 / deblock=1:-3:-3 / analyse=0x3:0x133 / me=umh / subme=10 / psy=1 / fade_compensate=0.00 / psy_rd=1.02:0.00 / mixed_ref=1 / me_range=24 / chroma_me=1 / trellis=2 / 8x8dct=1 / cqm=0 / deadzone=21,11 / fast_pskip=0 / chroma_qp_offset=-2 / threads=12 / lookahead_threads=2 / sliced_threads=0 / nr=0 / decimate=0 / interlaced=0 / bluray_compat=0 / constrained_intra=0 / fgo=0 / bframes=8 / b_pyramid=2 / b_adapt=2 / b_bias=0 / direct=3 / weightb=1 / open_gop=0 / weightp=2 / keyint=250 / keyint_min=23 / scenecut=40 / intra_refresh=0 / rc_lookahead=60 / rc=crf / mbtree=0 / crf=16.5000 / qcomp=0.68 / qpmin=0:0:0 / qpmax=69:69:69 / qpstep=4 / vbv_maxrate=62500 / vbv_bufsize=78125 / crf_max=0.0 / nal_hrd=none / filler=0 / ip_ratio=1.30 / pb_ratio=1.20 / aq=3:0.85 / aq-sensitivity=10.00 / aq-factor=1.00:1.00:1.00 / aq2=0 / aq3=0 / zones=4345,4410,crf=15.5/4890,5058,crf=15.5/61629,63348,crf=15.2/65244,65508,crf=15/65912,66296,crf=15/69255,69339,crf=15.2/70047,70143,crf=15.5/70311,70407,crf=15/73734,73792,crf=15/81085,82156,crf=15.2/85229,85805,crf=15/88271,89639,crf=15/105296,106520,crf=15.2/108264,109224,crf=15/132645,135021,crf=15.2/150747,154005,crf=15/196678,207806,crf=22
Language                    : English
Default                     : Yes
Forced                      : No
Color range                 : Limited
Matrix coefficients         : BT.709

Audio #1
ID                          : 2
Format                      : AC-3
Format/Info                 : Audio Coding 3
Mode extension              : CM (complete main)
Format settings, Endianness : Big
Codec ID                    : A_AC3
Duration                    : 2h 24mn
Bit rate mode               : Constant
Bit rate                    : 640 Kbps
Channel(s)                  : 6 channels
Channel positions           : Front: L C R, Side: L R, LFE
Sampling rate               : 48.0 KHz
Frame rate                  : 31.250 fps (1536 spf)
Compression mode            : Lossy
Stream size                 : 661 MiB (7%)
Title                       : Dub [Blu-ray CEE] 5.1 640 kbps
Language                    : Ukrainian
Default                     : Yes
Forced                      : No

Audio #2
ID                          : 3
Format                      : AC-3
Format/Info                 : Audio Coding 3
Mode extension              : CM (complete main)
Format settings, Endianness : Big
Codec ID                    : A_AC3
Duration                    : 2h 24mn
Bit rate mode               : Constant
Bit rate                    : 640 Kbps
Channel(s)                  : 6 channels
Channel positions           : Front: L C R, Side: L R, LFE
Sampling rate               : 48.0 KHz
Frame rate                  : 31.250 fps (1536 spf)
Compression mode            : Lossy
Stream size                 : 661 MiB (7%)
Title                       : Original, 5.1 640 kbps
Language                    : English
Default                     : No
Forced                      : No

Text #1
ID                          : 4
Format                      : UTF-8
Codec ID                    : S_TEXT/UTF8
Codec ID/Info               : UTF-8 Plain Text
Duration                    : 2h 23mn
Bit rate                    : 114 bps
Count of elements           : 2153
Stream size                 : 121 KiB (0%)
Title                       : Ukr full
Language                    : Ukrainian
Default                     : No
Forced                      : No

Text #2
ID                          : 5
Format                      : UTF-8
Codec ID                    : S_TEXT/UTF8
Codec ID/Info               : UTF-8 Plain Text
Duration                    : 2h 14mn
Bit rate                    : 67 bps
Count of elements           : 2096
Stream size                 : 66.6 KiB (0%)
Title                       : Eng full
Language                    : English
Default                     : No
Forced                      : No

Text #3
ID                          : 6
Format                      : UTF-8
Codec ID                    : S_TEXT/UTF8
Codec ID/Info               : UTF-8 Plain Text
Duration                    : 2h 15mn
Bit rate                    : 73 bps
Count of elements           : 2275
Stream size                 : 72.8 KiB (0%)
Title                       : Eng SDH
Language                    : English
Default                     : No
Forced                      : No

Text #4
ID                          : 7
Format                      : UTF-8
Codec ID                    : S_TEXT/UTF8
Codec ID/Info               : UTF-8 Plain Text
Duration                    : 2h 19mn
Bit rate                    : 65 bps
Count of elements           : 2327
Stream size                 : 66.8 KiB (0%)
Title                       : Fre full
Language                    : French
Default                     : No
Forced                      : No

Text #5
ID                          : 8
Format                      : UTF-8
Codec ID                    : S_TEXT/UTF8
Codec ID/Info               : UTF-8 Plain Text
Duration                    : 2h 19mn
Bit rate                    : 55 bps
Count of elements           : 1836
Stream size                 : 56.2 KiB (0%)
Title                       : Portuguese full
Language                    : Portuguese
Default                     : No
Forced                      : No

Text #6
ID                          : 9
Format                      : UTF-8
Codec ID                    : S_TEXT/UTF8
Codec ID/Info               : UTF-8 Plain Text
Duration                    : 2h 18mn
Bit rate                    : 57 bps
Count of elements           : 1487
Stream size                 : 57.9 KiB (0%)
Title                       : Danish full
Language                    : Danish
Default                     : No
Forced                      : No

Text #7
ID                          : 10
Format                      : UTF-8
Codec ID                    : S_TEXT/UTF8
Codec ID/Info               : UTF-8 Plain Text
Duration                    : 2h 19mn
Bit rate                    : 62 bps
Count of elements           : 1809
Stream size                 : 63.5 KiB (0%)
Title                       : Spanish full
Language                    : Spanish
Default                     : No
Forced                      : No

Menu
00:00:00.000                : en:00:00:00.000
00:04:47.662                : en:00:04:47.662
00:09:01.541                : en:00:09:01.541
00:15:31.556                : en:00:15:31.556
00:21:12.229                : en:00:21:12.229
00:26:48.774                : en:00:26:48.774
00:31:22.756                : en:00:31:22.756
00:34:20.058                : en:00:34:20.058
00:39:36.124                : en:00:39:36.124
00:47:12.872                : en:00:47:12.872
00:53:59.027                : en:00:53:59.027
01:02:27.744                : en:01:02:27.744
01:10:03.324                : en:01:10:03.324
01:23:02.477                : en:01:23:02.477
01:27:11.101                : en:01:27:11.101
01:34:50.685                : en:01:34:50.685
01:42:36.359                : en:01:42:36.359
01:48:08.148                : en:01:48:08.148
01:53:47.279                : en:01:53:47.279
02:00:22.882                : en:02:00:22.882
02:07:19.465                : en:02:07:19.465
02:18:25.422                : en:02:18:25.422
Оригінал <----------> Ріп







Джерело: &


 Трекер:    Зареєстрований   

Завантажити / скачати фільм українською



відео для новачків



 Зареєстрований:   2016-06-03 20:58
 Розмір:   9.43 GB 
 Оцінка фільму:   6.4/10 (Голосів: 33)
   
Estranded 
VIP


З нами з: 09.02.14
Востаннє: 05.12.16
Повідомлень: 835

2016-06-03 20:59  
ого.... 9 гб, а щось легше)
от коли фільми гуртом перекладає, роблять класні ріпи 720р на 2-3 гб, на планшет якраз люкс!

Anonymous 







2016-06-03 21:03  
Estranded, тоді чекай avc-шку, а тут для ТВ 2,5 год динамічного екшену (та ще й мабуть погано стискається) ну ніяк не вийде зробити легше без значної втрати якості. crf=16,5
Estranded 
VIP


З нами з: 09.02.14
Востаннє: 05.12.16
Повідомлень: 835

2016-06-03 21:17  
igor911
ok, чекаю avc)

-VipeR- 
VIP


З нами з: 17.07.08
Востаннє: 05.12.16
Повідомлень: 275

2016-06-03 22:38  
Дякую, сподіваюсь на хороший бойовик, а то вони рідко останнім часом з'являються.
virtus8hur 
Попереджень: 1
Попереджень: 1 


З нами з: 06.02.10
Востаннє: 05.12.16
Повідомлень: 2957

2016-06-03 22:43  
-VipeR- написано:
сподіваюсь на хороший бойовик,

Навряд... судячи з того хто знімав і про що.

Anonymous 







2016-06-04 11:52  
EduardGol 
Поважний учасник


З нами з: 03.10.13
Востаннє: 05.12.16
Повідомлень: 162

2016-06-05 19:42  
Хороший фільм. Дві з гадом години промайнули непомітно, адже напруження не відпускає.
пан Струмок 
Свій


З нами з: 19.02.13
Востаннє: 30.11.16
Повідомлень: 123

2016-06-08 19:56  
Чергова маячня(слід визнати доволі якісна) про те, що одні люди людяніші за інших, тому можуть колошкати їх наче скажених собак.
dirtdog 
Новенький


З нами з: 02.03.15
Востаннє: 02.12.16
Повідомлень: 2

2016-06-28 22:09  
Вибачте якщо питання дурне і не по темі, пернечіть у відповідний розділ якщо треба, але може хтось якось допоможе. Скачую фільми переважно тут, і коли дивлюся фільм(зазвичай вечором коли дитина вже спить) в мене дуже великий перепад звуку. Коли в фільмі говорять ледь чути, а коли якась активна сцена, особливо вибухи, стрілянина сам лякаюся не те що боюся дитину розбудити)) Дивлюся фільм з пультом в руках і прогнозую в який момент встигнути збавити гучність. Це особливо помітно на українській доріжці, оригінал не таку різницю але трохи має..телевізор LG Smart tv(модель конкретно не пам"ятаю), динаміки стандартні , не кінотеатр, з настройками бавився, не дуже допомагає..дякую, вибачте за велику к-ть букв))
Anonymous 







2016-06-28 22:21  
dirtdog, це стосується цього укр.звуку у цьому фільмі? Чи яких конкретно фільмів/релізів? Якщо це стосується доріжок у 5.1, а це у переважній більшості тепер (в релізах нових фільмів) ліцензійні - то проблема у вас - додайте гучності центрального каналу. Якщо це стосується укр.доріжок у форматі 2.0 - то тут вже нічим не зарадиш, крім як у звуковому редакторі якимось чином нормалізувати гучність, але канали то вже змуксовані Sad (1)
NeetScrool 
Відео Гуртом - фільмокрай
Відео Гуртом - фільмокрай


З нами з: 10.01.13
Востаннє: 05.12.16
Повідомлень: 2217

2016-06-28 23:45  
MPC:

Ваш часовий пояс: GMT + 2 Години

Нова тема   Відповісти