Завантажити та скачати торренти українською


Океан Ельзи - Без меж (2016) [FLAC] | Rock

Нові коментарі

Нова тема   Відповісти
Автор Повідомлення
kolpavel 
VIP


З нами з: 04.05.14
Востаннє: 10.12.16
Повідомлень: 1061

2016-06-02 20:54  
Океан Ельзи - Без меж (2016) [FLAC] | Rock

Океан Ельзи - Без меж (2016) [FLAC] | Rock


Стиль: Rock
Країна, місто: Україна, Львів
Сайти: Офіційний сайт
Видавець: ТОВ «Квадро Диск Україна»
Виконавці:
Вокал, гітара, клавішні - Святослав Вакарчук
Барабани, перекусія - Денис Глінін
Бас, бек вокал - Денис Дудко
Клавішні - Мілош Єліч
Гітара, перекусія - Владімір Опсеніца
Клавішні та програмування - Віталій Телезин
Музика та слова - Святослав Вакарчук
Продюсери альбому - Святослав Вакарчук, Владімір Опсеніца, Віталій Телезин
Записано 2016 р. на 211 Recording Studio, інженери запису - Віталій Телезин, Ростислав Терешко
Зведення, мастеринг – Віталій Телезин

Пісні:

    01. Віддай мені (свою любов) - 4:04
    02. Не йди - 4:52
    03. Джерело - 5:02
    04. Сонце - 4:54
    05. Мить - 5:12
    06. Не твоя війна - 4:27
    07. Еверест - 4:53
    08. Хтось в небо летить - 3:35
    09. Життя починається знов - 4:33
    10. Осінь - 4:36
    11. Без меж - 5:20

Тривалість: 00:51:50
Мова: українська
Аудіо-кодек: FLAC
Бітрейт: 952 кб/с
Джерело: трекер
Додаткова інформація:
ЕАС
Exact Audio Copy V1.1 from 23. June 2015

EAC extraction logfile from 31. May 2016, 14:53

Океан Ельзи / Без меж

Used drive : ASUS DRW-24B3ST Adapter: 1 ID: 0

Read mode : Secure
Utilize accurate stream : Yes
Defeat audio cache : Yes
Make use of C2 pointers : No

Read offset correction : 6
Overread into Lead-In and Lead-Out : No
Fill up missing offset samples with silence : Yes
Delete leading and trailing silent blocks : No
Null samples used in CRC calculations : Yes
Used interface : Native Win32 interface for Win NT & 2000

Used output format : User Defined Encoder
Selected bitrate : 768 kBit/s
Quality : High
Add ID3 tag : No
Command line compressor : C:\Program Files (x86)\Exact Audio Copy\FLAC\FLAC.EXE
Additional command line options : -6 -V -T "ARTIST=%artist%" -T "TITLE=%title%" -T "ALBUM=%albumtitle%" -T "DATE=%year%" -T "TRACKNUMBER=%tracknr%" -T "GENRE=%genre%" -T "COMMENT=%comment%" -T "BAND=%albuminterpret%" -T "ALBUMARTIST=%albuminterpret%" -T "COMPOSER=%composer%" %haslyrics%--tag-from-file=LYRICS="%lyricsfile%"%haslyrics% -T "DISCNUMBER=%cdnumber%" -T "TOTALDISCS=%totalcds%" -T "TOTALTRACKS=%numtracks%" %hascover%--picture="%coverfile%"%hascover% %source% -o %dest%

TOC of the extracted CD

Track | Start | Length | Start sector | End sector
---------------------------------------------------------
1 | 0:00.00 | 4:06.03 | 0 | 18452
2 | 4:06.03 | 4:54.12 | 18453 | 40514
3 | 9:00.15 | 5:03.70 | 40515 | 63309
4 | 14:04.10 | 4:56.58 | 63310 | 85567
5 | 19:00.68 | 5:14.55 | 85568 | 109172
6 | 24:15.48 | 4:28.73 | 109173 | 129345
7 | 28:44.46 | 4:55.28 | 129346 | 151498
8 | 33:39.74 | 3:37.50 | 151499 | 167823
9 | 37:17.49 | 4:34.72 | 167824 | 188445
10 | 41:52.46 | 4:37.04 | 188446 | 209224
11 | 46:29.50 | 5:20.59 | 209225 | 233283

Range status and errors

Selected range

Filename D:\Океан Ельзи - Без меж.wav

Peak level 100.0 %
Extraction speed 5.7 X
Range quality 100.0 %
Test CRC 4E2B4368
Copy CRC 4E2B4368
Copy OK

No errors occurred

AccurateRip summary

Track 1 not present in database
Track 2 not present in database
Track 3 not present in database
Track 4 not present in database
Track 5 not present in database
Track 6 not present in database
Track 7 not present in database
Track 8 not present in database
Track 9 not present in database
Track 10 not present in database
Track 11 not present in database

None of the tracks are present in the AccurateRip database

End of status report

---- CUETools DB Plugin V2.1.6

[CTDB TOCID: CyJcIsYXTk6jEqGOghUnUVk2bqE-] disk not present in database
Submit result: CyJcIsYXTk6jEqGOghUnUVk2bqE- has been uploaded

==== Log checksum 1C96ED49165D9AD517EF47DF5D3AEB734F37E36F9CB70D0C823963F59C1F5CA7 ====
Cue Sheet (.cue):

Код:

REM GENRE Rock
REM DATE 2016
REM DISCID 8A0C260B
REM COMMENT "ExactAudioCopy v1.1"
PERFORMER "Океан Ельзи"
TITLE "Без меж"
FILE "Океан Ельзи - Без меж.flac" WAVE
TRACK 01 AUDIO
TITLE "Віддай мені (свою любов)"
PERFORMER "Океан Ельзи"
INDEX 01 00:00:00
TRACK 02 AUDIO
TITLE "Не йди"
PERFORMER "Океан Ельзи"
INDEX 01 04:06:03
TRACK 03 AUDIO
TITLE "Джерело"
PERFORMER "Океан Ельзи"
INDEX 01 09:00:15
TRACK 04 AUDIO
TITLE "Сонце"
PERFORMER "Океан Ельзи"
INDEX 01 14:04:10
TRACK 05 AUDIO
TITLE "Мить"
PERFORMER "Океан Ельзи"
INDEX 01 19:00:68
TRACK 06 AUDIO
TITLE "Не твоя війна"
PERFORMER "Океан Ельзи"
INDEX 01 24:15:48
TRACK 07 AUDIO
TITLE "Еверест"
PERFORMER "Океан Ельзи"
INDEX 01 28:44:46
TRACK 08 AUDIO
TITLE "Хтось в небо летить"
PERFORMER "Океан Ельзи"
INDEX 01 33:39:74
TRACK 09 AUDIO
TITLE "Життя починається знов"
PERFORMER "Океан Ельзи"
INDEX 01 37:17:49
TRACK 10 AUDIO
TITLE "Осінь"
PERFORMER "Океан Ельзи"
INDEX 01 41:52:46
TRACK 11 AUDIO
TITLE "Без меж"
PERFORMER "Океан Ельзи"
INDEX 01 46:29:50
Звiт auCDtect Task manager:

Код:

-----------------------

DON'T MODIFY THIS FILE

-----------------------

PERFORMER: auCDtect Task Manager, ver. 1.6.0 RC1 build 1.6.0.1
Copyright (c) 2008-2010 y-soft. All rights reserved
http://y-soft.org

ANALYZER: auCDtect: CD records authenticity detector, version 0.8.2
Copyright (c) 2004 Oleg Berngardt. All rights reserved.
Copyright (c) 2004 Alexander Djourik. All rights reserved.

FILE: Океан Ельзи - Без меж.flac
Size: 370339989 Hash: 67AAB6919E030062276EDC3210685AFC Accuracy: -m0
Conclusion: CDDA 100%
Signature: FC8CF5E153E70DE016FD0154AE4D77651474B025


Якщо Ви справді бажаєте підтримати українське - після прослуховування, якщо музика вам сподобалась, придбайте ліцензійний диск. Підтримаймо вітчизняних виконавців!


Срібний реліз (на рейтинг впливає 50% завантаженого)
 Трекер:    Зареєстрований   

Завантажити / скачати українську музику



відео для новачків



 Зареєстрований:   2016-06-02 20:54
 Розмір:   399 MB 
 Оцінка музики:   9.8/10 (Голосів: 31)
   
kolpavel 
VIP


З нами з: 04.05.14
Востаннє: 10.12.16
Повідомлень: 1061

2016-06-02 22:32  

merlin_zaraza 
Свій


З нами з: 20.06.09
Востаннє: 09.12.16
Повідомлень: 124

2016-06-03 12:02  
kolpavel
можна будь ласка CUE файлик в кодуванні UTF-8 робити, не у всіх віндовс

igorvt63 
Новенький


З нами з: 02.05.12
Востаннє: 07.12.16
Повідомлень: 16

2016-06-20 18:33  
Придбати диск, це навряд (останній плеєр дисків здихає), а от купити альбом на Гугль Плей - це цілком реально.
Єдине, - що там немає (не знайшов?) лослес форматів. Sad (1)

Ваш часовий пояс: GMT + 2 Години

Нова тема   Відповісти