Завантажити та скачати торренти українською


Токійські порахунки / Tokyo Raiders / Dong jing gong lüe (2000) 720p Ukr/Chi | sub Eng/Chi

Нові коментарі

Нова тема   Відповісти
Останній раз роздавалося фізик Ужну (2016-12-07)
Автор Повідомлення
Anonymous 







2016-05-24 13:48  
Токійські порахунки / Tokyo Raiders / Dong jing gong lüe (2000) 720p Ukr/Chi | sub Eng/Chi

Токійські порахунки / Tokyo Raiders / Dong jing gong lüe (2000) 720p Ukr/Chi | sub Eng/Chi


Жанр: бойовик, комедія, драма
Країна: Гонконг



Кінокомпанія: Golden Harvest Company, Golden Harvest Pictures (China), Red on Red Productions
Режисер: Джинґл Ма
Актори: Тоні Люнь Чу Вай, Екін Чен, Келлі Чен

Сюжет:
У день весілля Мейсі (Келлі Чен) не з'являється її наречений Такахаші. Mейсі вирушає в Токіо на його пошуки. Вона зустрічає Томмі (Eкiн Чeн), дизайнера інтер'єру, який хоче забрати борг з Такахаші та Ленні (Тоні Люнь), приватного детектива, найнятого бандитським босом шпигувати за Такахаші. У ході слідства трійця виявляє, що знаходиться в центрі конфлікту з японською бандою.


Тривалість: 01:40:05
Якість: (автор ріпу WiKi)
Відео:
кодек:
розмір кадру: 1280 x 720
бітрейт: 8734 кб/с

Аудіо # 1:
мова: українська
переклад: багатоголосий закадровий (поверх англійської)
кодек: 2.0
бітрейт: 192 кб/с

Аудіо # 2:
мова: китайська (кантонська)
переклад: оригінал
кодек: 5.1
бітрейт: 640 кб/с

Джерело озвучення:


Субтитри:
мова: англійська
тип: програмні (м'які)
формат: *.srt

Субтитри:
мова: китайська (спрощена)
тип: програмні (м'які)
формат: *.srt

Субтитри:
мова: китайська (традиційна)
тип: програмні (м'які)
формат: *.srt
MediaInfo
General
Unique ID : 177193810119481567874184661590445374144 (0x854E495734E5A322BDF1B9EA5EEFBAC0)
Complete name : D:\Movies\Tokyo.Raiders.2000.720p.Ukr.Chi.Sub.Eng.2Chi.mkv
Format : Matroska
Format version : Version 4 / Version 2
File size : 6.69 GiB
Duration : 1h 40mn
Overall bit rate : 9 568 Kbps
Movie name : Jubowo @ WiKi
Encoded date : UTC 2016-05-22 13:20:50
Writing application : mkvmerge v9.1.0 ('Little Earthquakes') 64bit
Writing library : libebml v1.3.3 + libmatroska v1.4.4
DURATION : 01:35:24.347000000
NUMBER_OF_FRAMES : 1004
NUMBER_OF_BYTES : 22396
_STATISTICS_WRITING_APP : mkvmerge v9.1.0 ('Little Earthquakes') 64bit
_STATISTICS_WRITING_DATE_UTC : 2016-05-22 13:20:50
_STATISTICS_TAGS : BPS DURATION NUMBER_OF_FRAMES NUMBER_OF_BYTES

Video
ID : 1
Format : AVC
Format/Info : Advanced Video Codec
Format profile : [email protected]
Format settings, CABAC : Yes
Format settings, ReFrames : 9 frames
Codec ID : V_MPEG4/ISO/AVC
Duration : 1h 40mn
Bit rate : 8 734 Kbps
Width : 1 280 pixels
Height : 720 pixels
Display aspect ratio : 16:9
Frame rate mode : Constant
Frame rate : 24.000 fps
Color space : YUV
Chroma subsampling : 4:2:0
Bit depth : 8 bits
Scan type : Progressive
Bits/(Pixel*Frame) : 0.395
Stream size : 5.97 GiB (89%)
Writing library : core 129 r2245+704+36 8e61944 tMod+MixAQ [[email protected]:2:0 X86_64]
Encoding settings : cabac=1 / ref=9 / deblock=1:-3:-3 / analyse=0x3:0x133 / me=umh / subme=11 / psy=1 / fade_compensate=0.00 / psy_rd=1.05:0.10 / mixed_ref=1 / me_range=32 / chroma_me=1 / trellis=2 / 8x8dct=1 / cqm=0 / deadzone=21,11 / fast_pskip=0 / chroma_qp_offset=-3 / threads=12 / lookahead_threads=2 / sliced_threads=0 / nr=0 / decimate=0 / interlaced=0 / bluray_compat=0 / constrained_intra=0 / fgo=0 / bframes=10 / b_pyramid=2 / b_adapt=2 / b_bias=0 / direct=3 / weightb=1 / open_gop=0 / weightp=2 / keyint=250 / keyint_min=24 / scenecut=40 / intra_refresh=0 / rc_lookahead=80 / rc=2pass / mbtree=1 / bitrate=8734 / ratetol=1.0 / qcomp=0.70 / qpmin=0 / qpmax=69 / qpstep=4 / cplxblur=20.0 / qblur=0.5 / ip_ratio=1.40 / aq=1 / aq-strength=0.85 / aq-sensitivity=10.00 / aq-ifactor=1.00 / aq-pfactor=1.00 / aq-bfactor=1.00 / aq2=0
Language : Chinese
Default : Yes
Forced : No
Color range : Limited
Matrix coefficients : BT.709
DURATION : 01:40:05.125000000
NUMBER_OF_FRAMES : 144123
NUMBER_OF_BYTES : 6555777440
_STATISTICS_WRITING_APP : mkvmerge v9.1.0 ('Little Earthquakes') 64bit
_STATISTICS_WRITING_DATE_UTC : 2016-05-22 13:20:50
_STATISTICS_TAGS : BPS DURATION NUMBER_OF_FRAMES NUMBER_OF_BYTES

Audio #1
ID : 2
Format : AC-3
Format/Info : Audio Coding 3
Mode extension : CM (complete main)
Format settings, Endianness : Big
Codec ID : A_AC3
Duration : 1h 40mn
Bit rate mode : Constant
Bit rate : 192 Kbps
Channel(s) : 2 channels
Channel positions : Front: L R
Sampling rate : 48.0 KHz
Compression mode : Lossy
Stream size : 137 MiB (2%)
Title : Ukrainian
Language : Ukrainian
Default : Yes
Forced : No

Audio #2
ID : 3
Format : AC-3
Format/Info : Audio Coding 3
Mode extension : CM (complete main)
Format settings, Endianness : Big
Codec ID : A_AC3
Duration : 1h 40mn
Bit rate mode : Constant
Bit rate : 640 Kbps
Channel(s) : 6 channels
Channel positions : Front: L C R, Side: L R, LFE
Sampling rate : 48.0 KHz
Compression mode : Lossy
Stream size : 458 MiB (7%)
Title : Cantonese
Language : Chinese
Default : No
Forced : No

Text #1
ID : 4
Format : UTF-8
Codec ID : S_TEXT/UTF8
Codec ID/Info : UTF-8 Plain Text
Title : English
Language : English
Default : No
Forced : No

Text #2
ID : 5
Format : UTF-8
Codec ID : S_TEXT/UTF8
Codec ID/Info : UTF-8 Plain Text
Title : Simplified
Language : Chinese
Default : No
Forced : No

Text #3
ID : 6
Format : UTF-8
Codec ID : S_TEXT/UTF8
Codec ID/Info : UTF-8 Plain Text
Title : Traditional
Language : Chinese
Default : No
Forced : No

Menu
00:00:00.000 : en:00:00:00.000
00:08:57.875 : en:00:08:57.875
00:16:04.541 : en:00:16:04.541
00:23:08.916 : en:00:23:08.916
00:35:27.958 : en:00:35:27.958
00:43:16.291 : en:00:43:16.291
00:48:41.916 : en:00:48:41.916
00:59:20.416 : en:00:59:20.416
01:07:55.166 : en:01:07:55.166
01:14:37.291 : en:01:14:37.291
01:24:43.333 : en:01:24:43.333
01:30:19.125 : en:01:30:19.125
Скріншоти
Джерело: власний реліз
Особиста оцінка: 7 - у мене нема подруги
Особиста подяка: taraskill1 за створення української доріжки з мого запису
Для допитливих
З оригінального ріпу була видалена китайська (мандаринська) доріжка та додані англійські субтитри. Збережено чаптери як на Blu-Ray.


Срібний реліз (на рейтинг впливає 50% завантаженого)
 Трекер:    Зареєстрований   

Завантажити / скачати фільм українською



відео для новачків



 Зареєстрований:   2016-05-24 13:48
 Розмір:   6.69 GB 
 Оцінка фільму:   10/10 (Голосів: 2)
   
Інші релізи
Ваш часовий пояс: GMT + 2 Години

Нова тема   Відповісти