Завантажити та скачати торренти українською


W. Angel's Conquest - Few Moments Of Our Life (2012) [FLAC] | Power Metal

Нові коментарі

Нова тема   Відповісти
Останній раз роздавалося kolpavel (2016-12-07)
Автор Повідомлення
kolpavel 
VIP


З нами з: 04.05.14
Востаннє: 07.12.16
Повідомлень: 1059

2016-05-23 18:22  
W. Angel's Conquest - Few Moments Of Our Life (2012) [FLAC] | Power Metal

W. Angel's Conquest - Few Moments Of Our Life (2012) [FLAC] | Power Metal


Стиль: Power Metal
Країна, місто: Україна, Київ
Сайти: Офіційний сайт
Видавець: Warner Music Japan Inc. (WPCR-14792)
Виконавці:
Laars - вокал
Nicholas W. Angel - гітара
Agnarr - гітара
Berowar - бас
Erland - барабани
Пісні:
    01. I`ve Seen You In My Dreams (Retake 2012)
    02. Frozen Sky (Retake 2012)
    03. Be My Light (Single 2010 Edition)
    04. Prisoner Of The Universe
    05. Far Beyond
    06. The Road To Nowhere
    07. My Aim
    08. Before It`s Done
    09. The Last Sphynx
    10. Ancient Winds (Acoustic Version 2011)
    11. I`m Flying Back (Live In Kyiv 2012)
    12. We Are The Ones (Live In Kyiv 2012)

Тривалість: 00:53:49
Мова: англiйська
Аудіо-кодек: FLAC
Бітрейт: 864-1071 кб/с
Джерело: трекер
Додаткова інформація:
Japanese Edition

EAC:
Exact Audio Copy V1.0 beta 3 from 29. August 2011

Отчёт EAC об извлечении, выполненном 19. февраля 2013, 13:57

W. Angel's Conquest / Few Moments Of Our Life (Japanese Release)

Дисковод: HL-DT-STDVD-RAM GSA-H55N Adapter: 1 ID: 0

Режим чтения : Достоверность
Использование точного потока : Да
Отключение кэша аудио : Да
Использование указателей C2 : Нет

Коррекция смещения при чтении : 102
Способность читать области Lead-in и Lead-out : Нет
Заполнение пропущенных сэмплов тишиной : Да
Удаление блоков с тишиной в начале и конце : Нет
При вычислениях CRC использовались нулевые сэмплы : Да
Интерфейс : Встроенный Win32-интерфейс для Win NT/2000

Выходной формат : Пользовательский кодировщик
Выбранный битрейт : 320 kBit/s
Качество : Высокий
Добавление ID3-тега : Нет
Утилита сжатия : D:\Program Files\Monkey's Audio\MAC.exe
Дополнительные параметры : %source% %dest% -c3000

TOC извлечённого CD

Трек | Старт | Длительность | Начальный сектор | Конечный сектор
---------------------------------------------------------------------
1 | 0:00.00 | 3:58.66 | 0 | 17915
2 | 3:58.66 | 5:05.11 | 17916 | 40801
3 | 9:04.02 | 4:36.55 | 40802 | 61556
4 | 13:40.57 | 4:53.55 | 61557 | 83586
5 | 18:34.37 | 5:26.18 | 83587 | 108054
6 | 24:00.55 | 5:15.43 | 108055 | 131722
7 | 29:16.23 | 3:25.55 | 131723 | 147152
8 | 32:42.03 | 3:24.13 | 147153 | 162465
9 | 36:06.16 | 5:03.03 | 162466 | 185193
10 | 41:09.19 | 3:25.68 | 185194 | 200636
11 | 44:35.12 | 4:39.53 | 200637 | 221614
12 | 49:14.65 | 4:34.53 | 221615 | 242217

Характеристики диапазона извлечения и сообщения об ошибках

Выбранный диапазон

Имя файла D:\Music MP3\W. Angel's Conquest - Few Moments Of Our Life (Japanese Release).wav

Пиковый уровень 100.0 %
Скорость извлечения 2.5 X
Качество диапазона 99.9 %
CRC теста 85E21091
CRC копии 85E21091
Копирование... OK

Ошибок не произошло

AccurateRip: сводка

Трек 1 отсутствует в базе данных
Трек 2 отсутствует в базе данных
Трек 3 отсутствует в базе данных
Трек 4 отсутствует в базе данных
Трек 5 отсутствует в базе данных
Трек 6 отсутствует в базе данных
Трек 7 отсутствует в базе данных
Трек 8 отсутствует в базе данных
Трек 9 отсутствует в базе данных
Трек 10 отсутствует в базе данных
Трек 11 отсутствует в базе данных
Трек 12 отсутствует в базе данных

Ни одного трека нет в базе AccurateRip

Конец отчёта

==== Контрольная сумма отчёта E8DBF6B12CDECB9EBC2C97BA8FEB8F6ABBB7F808E1822372EE6ADC8A070AE8BC ====


Якщо Ви справді бажаєте підтримати українське - після прослуховування, якщо музика вам сподобалась, придбайте ліцензійний диск. Підтримаймо вітчизняних виконавців!


Срібний реліз (на рейтинг впливає 50% завантаженого)
 Трекер:    Зареєстрований   

Завантажити / скачати українську музику



відео для новачків



 Зареєстрований:   2016-05-23 18:22
 Розмір:   388 MB 
 Оцінка музики:   10/10 (Голосів: 2)
   
kolpavel 
VIP


З нами з: 04.05.14
Востаннє: 07.12.16
Повідомлень: 1059

2016-05-23 21:23  
Ваш часовий пояс: GMT + 2 Години

Нова тема   Відповісти