Завантажити та скачати торренти українською


Боги Єгипту / Gods of Egypt (2016) 1080p 3D [HalfOverUnder] Ukr/Eng | Sub Eng

Нові коментарі

Нова тема   Відповісти
Автор Повідомлення
-VipeR- 
VIP


З нами з: 17.07.08
Востаннє: 03.12.16
Повідомлень: 275

2016-05-22 10:37  
Боги Єгипту / Gods of Egypt (2016) 1080p 3D [HalfOverUnder] Ukr/Eng | Sub Eng

Боги Єгипту / Gods of Egypt (2016) 1080p 3D [HalfOverUnder] Ukr/Eng | Sub Eng


Жанр: екшн, пригоди, фентезі
Країна: США



Кінокомпанія: Pyramania, Summit Entertainment, Mystery Clock Cinema
Режисер: Алекс Пройас
Актори: Джерард Батлер, Ніколай Костер-Вальдау, Брентон Твейтес, Еббі Лі, Кортні Ітон, Джеффрі Раш, Рейчел Блейк, Чедвік Бозман, Елоді Янґ

Сюжет:
Сет, безжальний бог темряви, захопив трон Єгипту і перетворив колись мирну й процвітаючу країну на засилля хаосу і міжусобиць. Мало хто мав сміливість повстати проти нього. Лише молодий грабіжник наважується перемогти Сета, заручившись підтримкою могутнього бога Гора.


Тривалість: 02:07:02
Якість: 1080p 3D [HalfOverUnder] by ash61
Відео:
кодек:
розмір кадру: 1920 х 1080
бітрейт: 12.1 мбіт/с

Аудіо # 1:
мова: українська
переклад: професійний дубльований
кодек: 2.0
бітрейт: 192 кб/с

Аудіо # 2:
мова: англійська
переклад: оригінал
кодек: 5.1
бітрейт: 640 кб/с

Субтитри:
мова: англійська
тип: програмні (м'які)
формат: *.srt
MediaInfo
Код:
General
Unique ID                      : 223260400108265579146393783120118499210 (0xA7F6639545452B00B5BF376ED51D478A)
Complete name                  : D:\3D\Художні\Gods of Egypt (2016) 1080p 3D [HalfOverUnder]  [ukr eng] sub [eng] [Hurtom].mkv
Format                         : Matroska
Format version                 : Version 4 / Version 2
File size                      : 11.5 GiB
Duration                       : 2h 7mn
Overall bit rate               : 12.9 Mbps
Movie name                     : Боги Египта / Gods of Egypt (2016) в 3Д
Encoded date                   : UTC 2016-05-22 08:06:10
Writing application            : mkvmerge v8.8.0 ('Wind at my back') 64bit
Writing library                : libebml v1.3.3 + libmatroska v1.4.4
Attachments                    : poster.jpg

Video
ID                             : 1
Format                         : AVC
Format/Info                    : Advanced Video Codec
Format profile                 : [email protected]
Format settings, CABAC         : Yes
Format settings, ReFrames      : 4 frames
Codec ID                       : V_MPEG4/ISO/AVC
Duration                       : 2h 7mn
Bit rate                       : 12.1 Mbps
Width                          : 1 920 pixels
Height                         : 1 080 pixels
Display aspect ratio           : 16:9
Frame rate mode                : Constant
Frame rate                     : 23.976 (24000/1001) fps
Color space                    : YUV
Chroma subsampling             : 4:2:0
Bit depth                      : 8 bits
Scan type                      : Progressive
Bits/(Pixel*Frame)             : 0.244
Stream size                    : 10.7 GiB (94%)
Title                          : by Ash61
Writing library                : core 146 r2538 121396c
Encoding settings              : cabac=1 / ref=4 / deblock=1:-3:-3 / analyse=0x3:0x113 / me=umh / subme=10 / psy=1 / psy_rd=1.00:0.00 / mixed_ref=1 / me_range=32 / chroma_me=1 / trellis=2 / 8x8dct=1 / cqm=0 / deadzone=21,11 / fast_pskip=1 / chroma_qp_offset=-2 / threads=12 / lookahead_threads=3 / sliced_threads=0 / nr=0 / decimate=1 / interlaced=0 / bluray_compat=0 / constrained_intra=0 / bframes=12 / b_pyramid=2 / b_adapt=2 / b_bias=0 / direct=3 / weightb=1 / open_gop=0 / weightp=2 / keyint=250 / keyint_min=23 / scenecut=40 / intra_refresh=0 / rc_lookahead=60 / rc=crf / mbtree=1 / crf=15.5 / qcomp=0.70 / qpmin=0 / qpmax=69 / qpstep=4 / vbv_maxrate=40000 / vbv_bufsize=30000 / crf_max=0.0 / nal_hrd=none / filler=0 / frame-packing=4 / ip_ratio=1.40 / aq=1:0.70
Language                       : English
Default                        : Yes
Forced                         : No

Audio #1
ID                             : 2
Format                         : AC-3
Format/Info                    : Audio Coding 3
Mode extension                 : CM (complete main)
Format settings, Endianness    : Big
Codec ID                       : A_AC3
Duration                       : 2h 7mn
Bit rate mode                  : Constant
Bit rate                       : 192 Kbps
Channel(s)                     : 2 channels
Channel positions              : Front: L R
Sampling rate                  : 48.0 KHz
Frame rate                     : 31.250 fps (1536 spf)
Compression mode               : Lossy
Stream size                    : 174 MiB (1%)
Title                          : Line in
Language                       : Ukrainian
Default                        : Yes
Forced                         : No

Audio #2
ID                             : 3
Format                         : AC-3
Format/Info                    : Audio Coding 3
Mode extension                 : CM (complete main)
Format settings, Endianness    : Big
Codec ID                       : A_AC3
Duration                       : 2h 7mn
Bit rate mode                  : Constant
Bit rate                       : 640 Kbps
Channel(s)                     : 6 channels
Channel positions              : Front: L C R, Side: L R, LFE
Sampling rate                  : 48.0 KHz
Frame rate                     : 31.250 fps (1536 spf)
Compression mode               : Lossy
Stream size                    : 581 MiB (5%)
Title                          : Original
Language                       : English
Default                        : No
Forced                         : No

Text #1
ID                             : 4
Format                         : UTF-8
Codec ID                       : S_TEXT/UTF8
Codec ID/Info                  : UTF-8 Plain Text
Duration                       : 1h 55mn
Bit rate                       : 46 bps
Count of elements              : 1210
Stream size                    : 39.0 KiB (0%)
Language                       : English
Default                        : Yes
Forced                         : No

Text #2
ID                             : 5
Format                         : UTF-8
Codec ID                       : S_TEXT/UTF8
Codec ID/Info                  : UTF-8 Plain Text
Duration                       : 1h 55mn
Bit rate                       : 51 bps
Count of elements              : 1481
Stream size                    : 43.7 KiB (0%)
Language                       : English
Default                        : No
Forced                         : No

Menu
00:00:00.000                   : :1
00:07:08.009                   : :2
00:18:07.544                   : :3
00:23:47.259                   : :4
00:30:11.808                   : :5
00:39:16.519                   : :6
00:46:30.621                   : :7
00:54:46.074                   : :8
01:01:14.128                   : :9
01:09:29.038                   : :10
01:18:03.345                   : :11
01:28:18.251                   : :12
01:36:12.056                   : :13
01:39:14.655                   : :14
01:46:58.328                   : :15
01:52:11.015                   : :16
Скріншоти
Джерело: &
Особиста оцінка: 8 - мені сподобалося

Подяка пану Covenant за доріжку.

Підтримати купівлю українського звуку можна у темі "Контент для придбання"


Відео для перегляду на 3D обладнанні!


 Трекер:    Зареєстрований   

Завантажити / скачати фільм українською



відео для новачків



 Зареєстрований:   2016-05-22 10:37
 Розмір:   11.49 GB 
 Оцінка фільму:   8.6/10 (Голосів: 7)
   
Інші релізи
   Боги Єгипту / Gods of Egypt (2016) 720p-mini (60 fps) Drool  8 / 0   3.49 GB   2016-06-23 11:38 
   Боги Єгипту / Gods of Egypt (2016) AVC Ukr/Eng | Sub Eng Загора  22 / 0   2.82 GB   2016-05-18 14:00 
   Боги Єгипту / Gods of Egypt (2016) AVC Gelios  18 / 0   2.17 GB   2016-05-18 13:30 
   Боги Єгипту / Gods of Egypt (2016) Covenant  82 / 1   1.45 GB   2016-05-18 11:57 
   Боги Єгипту / Gods of Egypt (2016) 1080p Ukr/Eng | Sub Eng Загора  18 / 0   9.07 GB   2016-05-18 09:52 
   Боги Єгипту / Gods of Egypt (2016) 720p Ukr/Eng | Sub Eng Загора  18 / 0   4.69 GB   2016-05-18 09:11 
valjko 
Новенький


З нами з: 12.05.12
Востаннє: 02.12.16
Повідомлень: 3

2016-09-19 22:00  
ВИРУЧАЙТЕ.
на укр 2.0 не йде звук на 5.1, тільки на 2 колонки. зробіть срочно укр 2.1. буду вдячний, за розуміння, та вашу роботу...

igor911 
Відео Гуртом
Відео Гуртом


З нами з: 18.01.08
Востаннє: 03.12.16
Повідомлень: 5118

2016-09-19 22:24  
valjko написано:
ВИРУЧАЙТЕ. зробіть срочно укр 2.1

Зривається показ у підпільному кінотеатрі?

QWERTYJJJJJJ 
Поважний учасник


З нами з: 06.11.12
Востаннє: 17.11.16
Повідомлень: 198

2016-10-26 09:45  
igor911 написано:
Зривається показ у підпільному кінотеатрі?
іноді це важливо..я наприклад іноді дивлюсь 3D на телевізорі коли донька спить і вимушений робити це в навушниках, а вони в свою чергу підключені паралельно з задніми колонками, які я відключаю. Тому якщо зву йде лише на передні, то це проблема. Інша справа, коли просто стерео-звук подається на всі колонки однаково...
Ваш часовий пояс: GMT + 2 Години

Нова тема   Відповісти