Завантажити та скачати торренти українською


Severoth - Solitude (2016) [FLAC] | Atmospheric Black Metal / Ambient

Нові коментарі

Нова тема   Відповісти
Останній раз роздавалося Inversia (2016-12-10)
Автор Повідомлення
kolpavel 
VIP


З нами з: 04.05.14
Востаннє: 11.12.16
Повідомлень: 1062

2016-05-18 22:46  
Severoth - Solitude (2016) [FLAC] | Atmospheric Black Metal / Ambient

Severoth - Solitude (2016) [FLAC] | Atmospheric Black Metal / Ambient


Стиль: Atmospheric Black Metal Ambient
Країна, місто: Україна, Днiпропетровськ
Видавець: Werewolf Promotion (WP-CD39)
Виконавці:
Музика, вірші, інструменти, вокал, дизайн - Severoth.
Пісні:
    01. Гроза/Storm - 14:21
    02. Самітність/Solitude - 14:02
    03. Дихання осені І/Autumn's Breath I - 06:08
    04. Останні птахи/Last Birds - 15:25
    05. Дихання осені ІІ/Autumn's Breath II - 03:35
    06. В минуле.../Into the Past... - 13:45

Тривалість: 01:07:18
Мова: українська
Аудіо-кодек: FLAC
Бітрейт: 799 кб/с
Джерело: трекер
Додаткова інформація:
EAC:
Exact Audio Copy V1.1 from 23. June 2015

EAC extraction logfile from 18. May 2016, 20:29

Severoth / Solitude

Used drive : hp DVD-RAM UJ8D1 Adapter: 1 ID: 0

Read mode : Secure
Utilize accurate stream : Yes
Defeat audio cache : Yes
Make use of C2 pointers : No

Read offset correction : 6
Overread into Lead-In and Lead-Out : No
Fill up missing offset samples with silence : Yes
Delete leading and trailing silent blocks : No
Null samples used in CRC calculations : Yes
Used interface : Native Win32 interface for Win NT & 2000

Used output format : Internal WAV Routines
Sample format : 44.100 Hz; 16 Bit; Stereo

TOC of the extracted CD

Track | Start | Length | Start sector | End sector
---------------------------------------------------------
1 | 0:00.00 | 14:21.15 | 0 | 64589
2 | 14:21.15 | 14:02.51 | 64590 | 127790
3 | 28:23.66 | 6:08.21 | 127791 | 155411
4 | 34:32.12 | 15:25.60 | 155412 | 224846
5 | 49:57.72 | 3:35.25 | 224847 | 240996
6 | 53:33.22 | 13:45.28 | 240997 | 302899

Range status and errors

Selected range

Filename D:\Torosar\EAC\Severoth - Solitude (2016)\Severoth - Solitude.wav

Peak level 100.0 %
Extraction speed 4.9 X
Range quality 100.0 %
Test CRC 39F55589
Copy CRC 39F55589
Copy OK

No errors occurred

AccurateRip summary

Track 1 not present in database
Track 2 not present in database
Track 3 not present in database
Track 4 not present in database
Track 5 not present in database
Track 6 not present in database

None of the tracks are present in the AccurateRip database

End of status report

---- CUETools DB Plugin V2.1.6

[CTDB TOCID: o9aSISXBQeuyrvxE87a7zWsxypo-] found
Submit result: o9aSISXBQeuyrvxE87a7zWsxypo- has been confirmed
Track | CTDB Status
1 | (1/1) Accurately ripped
2 | (1/1) Accurately ripped
3 | (1/1) Accurately ripped
4 | (1/1) Accurately ripped
5 | (1/1) Accurately ripped
6 | (1/1) Accurately ripped

==== Log checksum 5D2469B577E7D675446D417A700AAC35A7C19BDB44A3414B35697814467D7585 ====
(.CUE)
REM GENRE "Black Metal"
REM DATE 2016
REM DISCID 550FC606
REM COMMENT "ExactAudioCopy v1.1"
PERFORMER "Severoth"
TITLE "Solitude"
FILE "Severoth - Solitude.flac" WAVE
TRACK 01 AUDIO
TITLE "Гроза/Storm"
PERFORMER "Severoth"
INDEX 01 00:00:00
TRACK 02 AUDIO
TITLE "Самітність/Solitude"
PERFORMER "Severoth"
INDEX 00 14:19:15
INDEX 01 14:21:15
TRACK 03 AUDIO
TITLE "Дихання осені I/Autumn's Breath I"
PERFORMER "Severoth"
INDEX 00 28:21:66
INDEX 01 28:23:66
TRACK 04 AUDIO
TITLE "Останні птахи/Last Birds"
PERFORMER "Severoth"
INDEX 00 34:30:12
INDEX 01 34:32:12
TRACK 05 AUDIO
TITLE "Дихання осені II/Autumn's Breath II"
PERFORMER "Severoth"
INDEX 00 49:55:72
INDEX 01 49:57:72
TRACK 06 AUDIO
TITLE "В минуле.../Into the Past..."
PERFORMER "Severoth"
INDEX 00 53:31:22
INDEX 01 53:33:22
21го березня, офіційна дата виходу другого повноформатного альбому SEVEROTH - "САМІТНІСТЬ"!
Саме рік тому вийшов перший альбом SEVEROTH - "WINTERFALL" - https://toloka.to/t71335 .
Багато чого змінилось за цей рік. Змінився і я. Тому настав час для другої глави в історії SEVEROTH.
"САМІТНІСТЬ" виданий лейблом Werewolf Promotion лімітованим накладом в 500 копій в форматі CD та на касетах.
Буклет на 12 сторінок, повністю Україномовна лірика.
Атмосферна подоріж крізь час і простір, крізь морозні тропи лісів, крізь найтемніші імлисті хащі , притаєні останнім листям....
Трекліст:
01 - Гроза
02 - Самітність
03 - Дихання Осені I
04 - Останні птахи
05 - Дихання Осені II
06 - В минуле...
Для передзамовлення писати на email [email protected]


Якщо Ви справді бажаєте підтримати українське - після прослуховування, якщо музика вам сподобалась, придбайте ліцензійний диск. Підтримаймо вітчизняних виконавців!


Срібний реліз (на рейтинг впливає 50% завантаженого)
 Трекер:    Зареєстрований   

Завантажити / скачати українську музику



відео для новачків



 Зареєстрований:   2016-05-19 19:58
 Розмір:   415 MB 
 Оцінка музики:   10/10 (Голосів: 3)
   
kolpavel 
VIP


З нами з: 04.05.14
Востаннє: 11.12.16
Повідомлень: 1062

2016-05-19 20:11  
Forward! 
VIP


З нами з: 27.11.11
Востаннє: 11.12.16
Повідомлень: 426

2016-05-19 20:33  
Вартість альбому - 100 грн. В комплект альбому входить буклет з 12 сторінок. Ну і Северот не проти залишити автограф.
Мені десь з понеділка має прийти.
А альбом наш чувак злив на рутрекер. От гад.

kolpavel 
VIP


З нами з: 04.05.14
Востаннє: 11.12.16
Повідомлень: 1062

2016-05-19 20:58  
Forward! написано:
наш чувак

Torosar91? Важко зливав, цiлу добу мучив.

Ваш часовий пояс: GMT + 2 Години

Нова тема   Відповісти