Завантажити та скачати торренти українською


Дедпул / Deadpool (2016) 720p-mini (60 fps)

Нові коментарі

Нова тема   Відповісти
Автор Повідомлення
Drool 
VIP


З нами з: 17.04.10
Востаннє: 03.12.16
Повідомлень: 1262

2016-05-16 08:48  
Дедпул / Deadpool (2016) 720p-mini (60 fps)

Жанр: фантастика, екшн, комедія
Країна: США



Кінокомпанія: Twentieth Century Fox, Marvel Studios
Режисер: Тім Міллер
Актори: Раян Рейнольдс, Ті Джей Міллер, Ед Скрейн, Морена Баккарін, Рейчел Шин, Бріанна Гілдебранд, Стен Лі, Стефан Капічіч, Леслі Аґґамс та інші.

Сюжет:
Колишній солдат, що став найманцем спецназу, зазнав нестандартного експерименту, намагаючись вилікувати рак. Завдяки цьому Вейд Вілсон отримав підвищену здатність до зцілення, неймовірну силу і спритність, а також нестійкий психічний стан, що сформував особливий чорний гумор. Однак його шкіра виявилася знівеченою. В герої народжується нова особистість - Дедпул. Озброївшись новими здібностями і маніакальним почуттям гумору, Вейд Вілсон виходить на полювання за тією людиною, яка зруйнувала його життя і викрала кохану дівчину.


Тривалість: 01:48:06
Якість: 720p-mini
Відео:
кодек:
розмір кадру: 1280x536
бітрейт: 3426 кб/с
crf: 18.0
кадрів на секунду: 59.940 к/с

Аудіо:
мова: українська
переклад: професійний дубльований
кодек: 5.1
бітрейт: 448 кб/с

Джерело озвучення:


Субтитри:
мова: українська
тип: програмні (м'які) форсовані
формат: *.srt
MediaInfo
General
Unique ID : 26905244307836639806813557781300982253 (0x143DC2F613F52C3D763D135090EB31ED)
Complete name : /mnt/disk_d/Video/Deadpool.2016.Ukr.Dub..720p-mini.60fps.mkv
Format : Matroska
Format version : Version 4 / Version 2
File size : 2.98 GiB
Duration : 1h 48mn
Overall bit rate : 3 953 Kbps
Movie name : Дедпул / Deadpool (2016) 720p-mini [60 fps] | video by NNNB
Encoded date : UTC 2016-05-16 06:37:33
Writing application : mkvmerge v8.5.0 ('Vanishing Act') 64bit
Writing library : libebml v1.3.1 + libmatroska v1.4.2
DURATION : 01:47:08.343000000
NUMBER_OF_FRAMES : 13
NUMBER_OF_BYTES : 604
_STATISTICS_WRITING_APP : mkvmerge v8.5.0 ('Vanishing Act') 64bit
_STATISTICS_WRITING_DATE_UTC : 2016-05-16 06:37:33
_STATISTICS_TAGS : BPS DURATION NUMBER_OF_FRAMES NUMBER_OF_BYTES

Video
ID : 1
Format : AVC
Format/Info : Advanced Video Codec
Format profile : [email protected]
Format settings, CABAC : Yes
Format settings, ReFrames : 9 frames
Codec ID : V_MPEG4/ISO/AVC
Duration : 1h 48mn
Bit rate : 3 426 Kbps
Width : 1 280 pixels
Height : 536 pixels
Display aspect ratio : 2.40:1
Frame rate mode : Constant
Frame rate : 60.000 fps
Color space : YUV
Chroma subsampling : 4:2:0
Bit depth : 8 bits
Scan type : Progressive
Bits/(Pixel*Frame) : 0.083
Stream size : 2.59 GiB (87%)
Title : Дедпул / Deadpool (2016) 720p-mini [60 fps] | video by NNNB
Writing library : core 148 r2692 64f4e24
Encoding settings : cabac=1 / ref=9 / deblock=1:0:0 / analyse=0x3:0x133 / me=umh / subme=10 / psy=1 / psy_rd=1.00:0.00 / mixed_ref=1 / me_range=24 / chroma_me=1 / trellis=2 / 8x8dct=1 / cqm=0 / deadzone=21,11 / fast_pskip=0 / chroma_qp_offset=-2 / threads=12 / lookahead_threads=1 / sliced_threads=0 / nr=0 / decimate=1 / interlaced=0 / bluray_compat=0 / constrained_intra=0 / bframes=5 / b_pyramid=2 / b_adapt=2 / b_bias=0 / direct=3 / weightb=1 / open_gop=0 / weightp=2 / keyint=600 / keyint_min=60 / scenecut=40 / intra_refresh=0 / rc=crf / mbtree=0 / crf=18.0 / qcomp=0.60 / qpmin=0 / qpmax=69 / qpstep=4 / ip_ratio=1.40 / pb_ratio=1.30 / aq=2:0.70
Default : Yes
Forced : No

Audio
ID : 2
Format : AC-3
Format/Info : Audio Coding 3
Mode extension : CM (complete main)
Format settings, Endianness : Big
Codec ID : A_AC3
Duration : 1h 48mn
Bit rate mode : Constant
Bit rate : 448 Kbps
Channel(s) : 6 channels
Channel positions : Front: L C R, Side: L R, LFE
Sampling rate : 48.0 KHz
Compression mode : Lossy
Delay relative to video : 24ms
Stream size : 346 MiB (11%)
Title : Рідна мова | , 5.1, 48 KHz, 448 kbps
Language : Ukrainian
Default : Yes
Forced : Yes

Text
ID : 3
Format : UTF-8
Codec ID : S_TEXT/UTF8
Codec ID/Info : UTF-8 Plain Text
Title : Українські | форсовані
Language : Ukrainian
Default : Yes
Forced : Yes
Скріншоти




Джерело відеоряду:
Особиста оцінка: 8 - мені сподобалося


 Трекер:    Зареєстрований   

Завантажити / скачати фільм українською



відео для новачків



 Зареєстрований:   2016-05-16 08:48
 Розмір:   2.98 GB 
 Оцінка фільму:   9.5/10 (Голосів: 39)
   
Інші релізи
   Дедпул / Deadpool (2016) 720p-mini Drool  21 / 0   2.3 GB   2016-05-11 07:43 
   Дедпул / Deadpool (2016) Covenant  53 / 0   1.45 GB   2016-05-10 19:56 
   Дедпул / Deadpool (2016) AVC Ukr/Eng | Sub Ukr/Eng Gelios  46 / 0   1.99 GB   2016-05-08 11:51 
   Дедпул / Deadpool (2016) 1080p Ukr/Eng | Sub Ukr/Eng 11FrYkT  50 / 0   10.13 GB   2016-05-08 11:41 
   Дедпул / Deadpool (2016) 720p Ukr/Eng | Sub Ukr/Eng leicheman  43 / 0   6.34 GB   2016-04-30 13:05 
les May 
Новенький


З нами з: 20.06.13
Востаннє: 28.11.16
Повідомлень: 1

2016-07-25 13:16  
Лише в мене звук відстає?
Drool 
VIP


З нами з: 17.04.10
Востаннє: 03.12.16
Повідомлень: 1262

2016-07-25 21:46  
les May написано:
Лише в мене звук відстає?
Так Wink (1) Ставимо свіжий K-Lite, пробуємо інший відеопрогравач, який використовує системні кодеки, а не KMPlayer/VLC/ect.
Ваш часовий пояс: GMT + 2 Години

Нова тема   Відповісти