Завантажити та скачати торренти українською


Місто мрії (Сезон 2) / Magic City (Season 2) (2013) AVC Ukr/Eng | Sub Eng

Нові коментарі

Нова тема   Відповісти
Автор Повідомлення
krigg070 
Відео Гуртом - фільмокрай
Відео Гуртом - фільмокрай


З нами з: 29.10.14
Востаннє: 11.12.16
Повідомлень: 368

2016-05-08 09:05  
Місто мрії (Сезон 2) / Magic City (Season 2) (2013) AVC Ukr/Eng | Sub Eng



Жанр: драма, кримінальний
Країна: США



Кінокомпанія / телеканал: Starz
Режисер: Едвард Б'янчі, Саймон Селлан Джоунс, Девід Петрарка та інші
Актори: Джеффрі Дін Морган, Ольга Куриленко, Стівен Стрейт, Джессіка Маре, Денні Х'юстон, Крістіан Кук, Олена Сатине, Домінік Гарсіа-Лорідо та інші

Сюжет:
Другий сезон американської ретро-драми "Місто мрії" (Magic City) про життя найгламурнішого готелю в Маямі кінця 1950-х років. У другому сезоні власник готелю Айк (Джеффрі Дін Морган) усвідомлює, що не зможе ужитися з ґанґстером Беном (Денні Х'юстон), а тому намагається його позбутися. Але зробити це зовсім не просто. Айк вплутався в сутичку не на життя, а на смерть. Протягом сезону глядачі спостерігатимуть за битвою цих двох гігантів, які сіють навколо себе руйнування.

Тривалість: 1 серія: ~ 50 хв. (цілком серій: 8)
Перелік серій
    01. Season 2. Episode 1: Crime and Punishment
    02. Season 2. Episode 2: Angels of Death
    03. Season 2. Episode 3: Adapt or Die
    04. Season 2. Episode 4: Crossroads
    05. Season 2. Episode 5: World in Changes
    06. Season 2. Episode 6: Sitting on Top of the World
    07. Season 2. Episode 7: ... And Your Enemies Closer
    08. Season 2. Episode 8: The Sins of the Father
Якість: AVC
Відео:
кодек:
розмір кадру: 1 024 х 576
бітрейт: 1200 кб/с

Аудіо # 1:
мова: українська
переклад: багатоголосий закадровий
кодек: 2.0
бітрейт: 192 кб/с
примітка: є неозвучені моменти (так транслював телеканал)
Перекладено і озвучено Так Треба Продакшн на замовлення телеканалу Інтер

Аудіо # 2:
мова: англійська
переклад: оригінал
кодек: 2.0
бітрейт: 192 кб/с

Субтитри:
мова: англійська
тип: програмні (м'які)
формат: *.ass
Скріншоти
MediaInfo
Код:
General
Unique ID                      : 189893599464313205825621840164798003870 (0x8EDC2D4C4E35E2B2B2F6D57BA23EFA9E)
Complete name                  : C:\Users\krigg\Videos\Magic City (2013) S02 AVC [Ukr_Eng] [Sub Eng]\Magic.City.2013.S02E01.AVC.ukr_eng.sub_eng.mkv
Format                         : Matroska
Format version                 : Version 2
File size                      : 603 MiB
Duration                       : 53mn 13s
Overall bit rate               : 1 585 Kbps
Movie name                     : Місто мрії (2013) | Сезон 2. Епізод 1: Crime and Punishment
Encoded date                   : UTC 2016-05-09 14:19:16
Writing application            : mkvmerge v3.3.0 ('Language') built on Mar 24 2010 14:59:24
Writing library                : libebml v0.8.0 + libmatroska v0.9.0 / Lavf56.25.101

Video
ID                             : 1
Format                         : AVC
Format/Info                    : Advanced Video Codec
Format profile                 : [email protected]
Format settings, CABAC         : Yes
Format settings, ReFrames      : 5 frames
Codec ID                       : V_MPEG4/ISO/AVC
Duration                       : 53mn 13s
Bit rate                       : 1 200 Kbps
Width                          : 1 024 pixels
Height                         : 576 pixels
Display aspect ratio           : 16:9
Frame rate mode                : Constant
Frame rate                     : 23.976 (24000/1001) fps
Color space                    : YUV
Chroma subsampling             : 4:2:0
Bit depth                      : 8 bits
Scan type                      : Progressive
Bits/(Pixel*Frame)             : 0.085
Stream size                    : 445 MiB (74%)
Writing library                : core 146 r2538 121396c
Encoding settings              : cabac=1 / ref=5 / deblock=1:-1:-1 / analyse=0x3:0x113 / me=umh / subme=8 / psy=1 / psy_rd=1.00:0.00 / mixed_ref=1 / me_range=24 / chroma_me=1 / trellis=1 / 8x8dct=1 / cqm=0 / deadzone=21,11 / fast_pskip=1 / chroma_qp_offset=-2 / threads=3 / lookahead_threads=1 / sliced_threads=0 / nr=0 / decimate=1 / interlaced=0 / bluray_compat=0 / constrained_intra=0 / bframes=3 / b_pyramid=2 / b_adapt=2 / b_bias=0 / direct=3 / weightb=1 / open_gop=0 / weightp=2 / keyint=240 / keyint_min=24 / scenecut=40 / intra_refresh=0 / rc_lookahead=40 / rc=2pass / mbtree=1 / bitrate=1200 / ratetol=1.0 / qcomp=0.60 / qpmin=0 / qpmax=51 / qpstep=4 / cplxblur=20.0 / qblur=0.5 / ip_ratio=1.40 / aq=1:1.00
Language                       : English
Default                        : No
Forced                         : No

Audio #1
ID                             : 2
Format                         : AC-3
Format/Info                    : Audio Coding 3
Mode extension                 : CM (complete main)
Format settings, Endianness    : Big
Codec ID                       : A_AC3
Duration                       : 53mn 13s
Bit rate mode                  : Constant
Bit rate                       : 192 Kbps
Channel(s)                     : 2 channels
Channel positions              : Front: L R
Sampling rate                  : 48.0 KHz
Frame rate                     : 31.250 fps (1536 spf)
Compression mode               : Lossy
Stream size                    : 73.1 MiB (12%)
Title                          : 2.0 @ 192 kbps - Інтер [MVO]
Language                       : Ukrainian
Default                        : Yes
Forced                         : No

Audio #2
ID                             : 3
Format                         : AC-3
Format/Info                    : Audio Coding 3
Mode extension                 : CM (complete main)
Format settings, Endianness    : Big
Codec ID                       : A_AC3
Duration                       : 53mn 13s
Bit rate mode                  : Constant
Bit rate                       : 192 Kbps
Channel(s)                     : 2 channels
Channel positions              : Front: L R
Sampling rate                  : 48.0 KHz
Frame rate                     : 31.250 fps (1536 spf)
Compression mode               : Lossy
Delay relative to video        : -251ms
Stream size                    : 73.1 MiB (12%)
Title                          : 2.0 @ 192 kbps - Original
Language                       : English
Default                        : No
Forced                         : No

Text
ID                             : 4
Format                         : ASS
Codec ID                       : S_TEXT/ASS
Codec ID/Info                  : Advanced Sub Station Alpha
Compression mode               : Lossless
Language                       : English
Default                        : No
Forced                         : No
Джерело:
Особиста оцінка: 7 - якісний серіал

За записи з ТБ подяка Xottabi4007 (ex.ua)


Бронзовий реліз (на рейтинг впливає 75% завантаженого)
 Трекер:    Зареєстрований   

Завантажити / скачати серіал українською



відео для новачків



 Зареєстрований:   2016-05-09 17:11
 Розмір:   4.56 GB 
 Оцінка серіалу:   9.5/10 (Голосів: 4)
   
Ваш часовий пояс: GMT + 2 Години

Нова тема   Відповісти