Завантажити та скачати торренти українською


Karfagen - Magician's Theater (2014) [FLAC] | Symphonic Prog / Progressive Rock

Нові коментарі

Нова тема   Відповісти
Останній раз роздавалося kolpavel (2016-12-09)
Автор Повідомлення
kolpavel 
VIP


З нами з: 04.05.14
Востаннє: 09.12.16
Повідомлень: 1059

2016-05-07 22:52  
Karfagen - Magician's Theater (2014) [FLAC] | Symphonic Prog / Progressive Rock

Karfagen - Magician's Theater (2014) [FLAC] | Symphonic Prog / Progressive Rock


Стиль: Symphonic Prog Progressive Rock
Країна, місто: Україна, Харків
Сайти: Офіційний сайт
Видавець: Caerllysi Music
Виконавці:
Aнтон Калугін: клавіші, вокал, перкусія, програмування.
Троє гостьових гравців

Пісні:
    01. Magician's Theater (Overture) [06:24]
    02. The Birth of Mankind [05:48]
    03. Turret [01:30]
    04. Yuletide [05:30]
    05. Figment of the Imagination 1 [01:19]
    06. The Fibber's Diary [04:29]
    07. The Juggler's Boast [03:24]
    08. Figment of the Imagination 2 [02:25]
    09. Magician's Spell [21:06]
    10. Magician's Theater (Final) [05:35]


Тривалість: 00:57:34
Мова: відсутня (інструментальні композиції)
Аудіо-кодек: FLAC
Бітрейт: 880 кб/с
Джерело: трекер
Додаткова інформація:
EAC
Exact Audio Copy V1.0 beta 3 from 29. August 2011

EAC extraction logfile from 11. June 2014, 18:20

Karfagen / Magician's Theater

Used drive : ASUS DRW-1608P Adapter: 1 ID: 1

Read mode : Secure
Utilize accurate stream : Yes
Defeat audio cache : Yes
Make use of C2 pointers : No

Read offset correction : 48
Overread into Lead-In and Lead-Out : No
Fill up missing offset samples with silence : Yes
Delete leading and trailing silent blocks : No
Null samples used in CRC calculations : Yes
Used interface : Native Win32 interface for Win NT & 2000

Used output format : Internal WAV Routines
Sample format : 44.100 Hz; 16 Bit; Stereo

TOC of the extracted CD

Track | Start | Length | Start sector | End sector
---------------------------------------------------------
1 | 0:00.00 | 6:24.58 | 0 | 28857
2 | 6:24.58 | 5:48.71 | 28858 | 55028
3 | 12:13.54 | 1:30.37 | 55029 | 61815
4 | 13:44.16 | 5:30.59 | 61816 | 86624
5 | 19:15.00 | 1:18.73 | 86625 | 92547
6 | 20:33.73 | 4:29.01 | 92548 | 112723
7 | 25:02.74 | 3:24.09 | 112724 | 128032
8 | 28:27.08 | 2:25.24 | 128033 | 138931
9 | 30:52.32 | 21:06.03 | 138932 | 233884
10 | 51:58.35 | 5:35.57 | 233885 | 259066

Range status and errors

Selected range

Filename D:\Karfagen - Magician's Theater.wav

Peak level 99.1 %
Extraction speed 4.1 X
Range quality 100.0 %
Test CRC 99808611
Copy CRC 99808611
Copy OK

No errors occurred

AccurateRip summary

Track 1 not present in database
Track 2 not present in database
Track 3 not present in database
Track 4 not present in database
Track 5 not present in database
Track 6 not present in database
Track 7 not present in database
Track 8 not present in database
Track 9 not present in database
Track 10 not present in database

None of the tracks are present in the AccurateRip database

End of status report

==== Log checksum 9DF5D3EA6217D542B1374E422113707D2FBED52CF96E5D4F263AA9FA0D4596E8 ====
(.CUE)
REM GENRE "Progressive Rock"
REM DATE 2014
REM DISCID 7E0D7E0A
REM COMMENT "ExactAudioCopy v1.0b3"
PERFORMER "Karfagen"
TITLE "Magician's Theater"
FILE "Karfagen - Magician's Theater.flac" WAVE
TRACK 01 AUDIO
TITLE "Magician's Theater (Overture)"
PERFORMER "Karfagen"
INDEX 01 00:00:00
TRACK 02 AUDIO
TITLE "The Birth of Mankind"
PERFORMER "Karfagen"
INDEX 01 06:24:58
TRACK 03 AUDIO
TITLE "Turret"
PERFORMER "Karfagen"
INDEX 01 12:13:54
TRACK 04 AUDIO
TITLE "Yuletide"
PERFORMER "Karfagen"
INDEX 01 13:44:16
TRACK 05 AUDIO
TITLE "Figment of the Imagination 1"
PERFORMER "Karfagen"
INDEX 01 19:15:00
TRACK 06 AUDIO
TITLE "The Fibber's Diary"
PERFORMER "Karfagen"
INDEX 01 20:33:73
TRACK 07 AUDIO
TITLE "The Juggler's Boast"
PERFORMER "Karfagen"
INDEX 01 25:02:74
TRACK 08 AUDIO
TITLE "Figment of the Imagination 2"
PERFORMER "Karfagen"
INDEX 01 28:27:08
TRACK 09 AUDIO
TITLE "Magician's Spell"
PERFORMER "Karfagen"
INDEX 01 30:52:32
TRACK 10 AUDIO
TITLE "Magician's Theater (Final)"
PERFORMER "Karfagen"
INDEX 01 51:58:35


Якщо Ви справді бажаєте підтримати українське - після прослуховування, якщо музика вам сподобалась, придбайте ліцензійний диск. Підтримаймо вітчизняних виконавців!


Срібний реліз (на рейтинг впливає 50% завантаженого)
 Трекер:    Зареєстрований   

Завантажити / скачати українську музику



відео для новачків



 Зареєстрований:   2016-05-07 22:52
 Розмір:   394 MB 
 Оцінка музики:   10/10 (Голосів: 2)
   
kolpavel 
VIP


З нами з: 04.05.14
Востаннє: 09.12.16
Повідомлень: 1059

2016-05-07 22:54  
http://toloka.to/t26057 - Karfagen - Дискографія (6 альбомів) (2006-2013) [FLAC]


Ваш часовий пояс: GMT + 2 Години

Нова тема   Відповісти