Завантажити та скачати торренти українською


Мільйонер з нетрів / Мільйонер із нетрів / Slumdog Millionaire (2008) 720p 3xUkr/Eng | Sub Eng

Нові коментарі

Нова тема   Відповісти
Автор Повідомлення
Anonymous 







2016-05-04 11:42  
Мільйонер з нетрів / Мільйонер із нетрів / Slumdog Millionaire (2008) 720p 3xUkr/Eng | Sub Eng

Мільйонер з нетрів / Мільйонер із нетрів / Slumdog Millionaire (2008) 720p 3xUkr/Eng | Sub Eng

Альтернативні постери










повнорозмірні зображення відкриються по кліку (з натиснутим CTRL чи кліком середньою кнопкою мишки - у новій вкладці)

Мільйонер з нетрів / Мільйонер із нетрів / Slumdog Millionaire (2008) 720p 3xUkr/Eng | Sub Eng Мільйонер з нетрів / Мільйонер із нетрів / Slumdog Millionaire (2008) 720p 3xUkr/Eng | Sub Eng
володар 8 Оскарів, 4 Золотих глобусів, 7 премій Британської кіноакадемії та багатьох інших нагород
Усі нагороди та номінації

Оскар, 2009 рік
Переможець (8):
Найкращий фільм
Найкращий режисер (Денні Бойл)
Найкращий адаптований сценарій
Найкраща робота оператора
Найкращий звук
Найкращий монтаж
Найкраща пісня — "Jai Ho"
Найкращий саундтрек


Номінації (2):
Найкращий монтаж звуку
Найкраща пісня — "O Saya"



Золотий глобус, 2009 рік
Переможець (4):
Найкращий фільм (драма)
Найкращий режисер (Денні Бойл)
Найкращий сценарій
Найкращий саундтрек


Мільйонер з нетрів / Мільйонер із нетрів / Slumdog Millionaire (2008) 720p 3xUkr/Eng | Sub Eng
Британська академія кіно та телевізійного мистецтва, 2009 рік
Переможець (7):
Найкращий фільм
Найкращий режисер (Денні Бойл)
Найкращий адаптований сценарій
Найкраща робота оператора
Найкращий звук
Найкращий монтаж
Найкращий саундтрек


Номінації (4):
Найкраща чоловіча роль (Дев Патель)
Найкраща жіноча роль другого плану (Фріда Пінто)
Найкращий британський фільм
Найкраща робота художника-постановника


Мільйонер з нетрів / Мільйонер із нетрів / Slumdog Millionaire (2008) 720p 3xUkr/Eng | Sub Eng
Премія Гільдії акторів, 2009 рік
Переможець (1):
Найкращий акторський склад


Номінації (1):
Найкраща чоловіча роль другого плану (Дев Патель)


Європейська кіноакадемія, 2009 рік
Переможець (2):
Найкраща робота оператора (Ентоні Дод Ментл)
Приз глядацьких симпатій


Номінації (4):
Найкращий фільм
Найкраща робота сценариста (Саймон Бофой)
Найкраща чоловіча роль (Дев Патель)
Найкращий режисер (Денні Бойл)



Гойя (Іспанія), 2010 рік
Переможець (1):
Найкращий європейський фільм



Премія каналу MTV, 2009 рік
Номінації (6):
Найкращий фільм
Прорив року: Найкраща актриса (Фріда Пінто)
Прорив року: Найкращий актор (Дев Патель)
Найкраща пісня — "Jai'Ho (You Are My Destiny)"
Найбожевільніший епізод
Найкращий поцілунок (Дев Патель, Фріда Пінто)



Сатурн, 2009 рік
Номінації (2):
Найкращий молодий актор/актриса (Дев Патель)
Найкращий іноземний фільм



Сезар, 2009 рік
Номінація:
Найкращий фільм іноземною мовою

Жанр: драма, мелодрама
Країна: Велика Британія, США



Кінокомпанія: Warner Bros., Celador Films, Film4, Pathé Pictures International
Режисер: Денні Бойл / Danny Boyle, Лавлін Тандан / Loveleen Tandan
Актори: Дев Патель / Dev Patel, Аніл Капур / Anil Kapoor, Саурабх Шукла / Saurabh Shukla, Рахендранат Зутши / Rajendranath Zutshi, Женева Талвар / Jeneva Talwar, Фріда Пінто / Freida Pinto, Ірфан Хан / Irrfan Khan, Ажаруддін Мохаммед Ізмаїл / Azharuddin Mohammed Ismail, Аюш Махеш Кхедекар / Ayush Mahesh Khedekar, Суніл Кумар Агравал / Sunil Kumar Agrawal, Жира Банжара / Jira Banjara, Шейх Валі / Sheikh Wali та інші

Сюжет:
Джамаль Малік, 18-літній сирота з нетрів індійського міста Мумбаї, усього за один крок від перемоги у грі "Хто хоче стати мільйонером?" і виграшу 20 мільйонів рупій. Перервавши гру, його заарештовує поліція за підозрою у шахрайстві. Звідки юнак, який виріс на вулиці, може знати так багато?
Виявляється, відповіді на усі запитання хлопцеві підказало... саме життя.


Рейтинг MPAA: R - особам до 17 років обов'язкова присутність батьків або дорослого опікуна
Вікова категорія: 12+

Тривалість: 02:00:38
Якість: 720p
Відео:
кодек:
розмір кадру: 1280 х 544
бітрейт: 5075 Кбіт/с

Аудіо # 1: &
мова: українська
переклад: професійний дубльований
кодек: 2.0
бітрейт: 192 Кбіт/с

Аудіо # 2:
мова: українська
переклад: багатоголосий закадровий
кодек: 2.0
бітрейт: 192 Кбіт/с

Аудіо # 3:
мова: українська
переклад: одноголосий закадровий | ua2004
кодек: 2.0
бітрейт: 192 Кбіт/с

Аудіо # 4:
мова: англійська
переклад: оригінал
кодек: 5.1
бітрейт: 1509 Кбіт/с

Аудіо # 5:
мова: англійська
переклад: коментарі з режисером Денні Бойлом та актором Девом Пателем
кодек: 2.0
бітрейт: 224 Кбіт/с

Аудіо # 6:
мова: англійська
переклад: коментарі з сценаристом Саймоном Бофоєм та продюсером Крістіаном Колсоном
кодек: 2.0
бітрейт: 224 Кбіт/с

Субтитри:
мова: англійська
тип: програмні (м'які)
формат: *.srt
MediaInfo
Код:
Complete name               : Slumdog Millionaire (2008) [3xUkr,Eng sub.Eng] 720p [Hurtom].mkv
Format                      : Matroska
Format version              : Version 4 / Version 2
File size                   : 6.41 GiB
Duration                    : 2h 0mn
Overall bit rate            : 7 611 Kbps
Movie name                  : Мільйонер з нетрів / Slumdog Millionaire (2008) [3xUkr,Eng sub.Eng] 720p [Hurtom] https://toloka.to/t73402
Encoded date                : UTC 2016-05-04 09:53:22
Writing application         : mkvmerge v9.1.0 ('Little Earthquakes') 64bit
Writing library             : libebml v1.3.3 + libmatroska v1.4.4
Cover                       : Yes
Attachments                 : cover.jpg

Video
ID                          : 1
Format                      : AVC
Format/Info                 : Advanced Video Codec
Format profile              : [email protected]
Format settings, CABAC      : Yes
Format settings, ReFrames   : 11 frames
Codec ID                    : V_MPEG4/ISO/AVC
Duration                    : 2h 0mn
Bit rate                    : 5 075 Kbps
Width                       : 1 280 pixels
Height                      : 544 pixels
Display aspect ratio        : 2.35:1
Frame rate mode             : Constant
Frame rate                  : 23.976 fps
Color space                 : YUV
Chroma subsampling          : 4:2:0
Bit depth                   : 8 bits
Scan type                   : Progressive
Bits/(Pixel*Frame)          : 0.304
Stream size                 : 4.28 GiB (67%)
Title                       : Мільйонер з нетрів / Slumdog Millionaire (2008) 720p [HDClub]
Writing library             : core 67 r1137M 1fda882
Encoding settings           : cabac=1 / ref=11 / deblock=1:-2:-2 / analyse=0x3:0x113 / me=umh / subme=9 / psy_rd=0.9:0.0 / mixed_ref=1 / me_range=32 / chroma_me=1 / trellis=2 / 8x8dct=1 / cqm=0 / deadzone=21,11 / chroma_qp_offset=-2 / threads=6 / nr=0 / decimate=0 / mbaff=0 / bframes=5 / b_pyramid=1 / b_adapt=2 / b_bias=0 / direct=3 / wpredb=1 / keyint=250 / keyint_min=25 / scenecut=40 / rc=2pass / bitrate=5075 / ratetol=1.0 / qcomp=0.60 / qpmin=10 / qpmax=51 / qpstep=4 / cplxblur=20.0 / qblur=0.5 / ip_ratio=1.40 / pb_ratio=1.30 / aq=1:0.90
Language                    : English
Default                     : Yes
Forced                      : No

Audio #1
ID                          : 2
Format                      : AC-3
Format/Info                 : Audio Coding 3
Mode extension              : CM (complete main)
Format settings, Endianness : Big
Codec ID                    : A_AC3
Duration                    : 2h 0mn
Bit rate mode               : Constant
Bit rate                    : 192 Kbps
Channel(s)                  : 2 channels
Channel positions           : Front: L R
Sampling rate               : 48.0 KHz
Frame rate                  : 31.250 fps (1536 spf)
Compression mode            : Lossy
Stream size                 : 166 MiB (3%)
Title                       : Dub [1+1, TET] 2.0 192 kbps [Hurtom-patriot2305,Sando7,slavik_v_z,POMEO]
Language                    : Ukrainian
Default                     : Yes
Forced                      : No

Audio #2
ID                          : 3
Format                      : AC-3
Format/Info                 : Audio Coding 3
Mode extension              : CM (complete main)
Format settings, Endianness : Big
Codec ID                    : A_AC3
Duration                    : 2h 0mn
Bit rate mode               : Constant
Bit rate                    : 192 Kbps
Channel(s)                  : 2 channels
Channel positions           : Front: L R
Sampling rate               : 48.0 KHz
Frame rate                  : 31.250 fps (1536 spf)
Compression mode            : Lossy
Stream size                 : 166 MiB (3%)
Title                       : MVO [ICTV] 2.0 192 kbps [Hurtom-patriot2305,ratbol]
Language                    : Ukrainian
Default                     : No
Forced                      : No

Audio #3
ID                          : 4
Format                      : AC-3
Format/Info                 : Audio Coding 3
Mode extension              : CM (complete main)
Format settings, Endianness : Big
Codec ID                    : A_AC3
Duration                    : 2h 0mn
Bit rate mode               : Constant
Bit rate                    : 192 Kbps
Channel(s)                  : 2 channels
Channel positions           : Front: L R
Sampling rate               : 48.0 KHz
Frame rate                  : 31.250 fps (1536 spf)
Compression mode            : Lossy
Stream size                 : 166 MiB (3%)
Title                       : AVO [ua2004] 2.0 192 kbps [Hurtom-ua2004]
Language                    : Ukrainian
Default                     : No
Forced                      : No

Audio #4
ID                          : 5
Format                      :
Format/Info                 : Digital Theater Systems
Mode                        : 16
Format settings, Endianness : Big
Codec ID                    : A_DTS
Duration                    : 2h 0mn
Bit rate mode               : Constant
Bit rate                    : 1 509 Kbps
Channel(s)                  : 6 channels
Channel positions           : Front: L C R, Side: L R, LFE
Sampling rate               : 48.0 KHz
Frame rate                  : 93.750 fps (512 spf)
Bit depth                   : 24 bits
Compression mode            : Lossy
Stream size                 : 1.27 GiB (20%)
Title                       : Original, 5.1 1509 kbps
Language                    : English
Default                     : No
Forced                      : No

Audio #5
ID                          : 6
Format                      : AC-3
Format/Info                 : Audio Coding 3
Mode extension              : CM (complete main)
Format settings, Endianness : Big
Codec ID                    : A_AC3
Duration                    : 2h 0mn
Bit rate mode               : Constant
Bit rate                    : 224 Kbps
Channel(s)                  : 2 channels
Channel positions           : Front: L R
Sampling rate               : 48.0 KHz
Frame rate                  : 31.250 fps (1536 spf)
Compression mode            : Lossy
Stream size                 : 193 MiB (3%)
Title                       : Commentary with director Danny Boyle & actor Dev Patel, 2.0 224 kbps
Language                    : English
Default                     : No
Forced                      : No

Audio #6
ID                          : 7
Format                      : AC-3
Format/Info                 : Audio Coding 3
Mode extension              : CM (complete main)
Format settings, Endianness : Big
Codec ID                    : A_AC3
Duration                    : 2h 0mn
Bit rate mode               : Constant
Bit rate                    : 224 Kbps
Channel(s)                  : 2 channels
Channel positions           : Front: L R
Sampling rate               : 48.0 KHz
Frame rate                  : 31.250 fps (1536 spf)
Compression mode            : Lossy
Stream size                 : 193 MiB (3%)
Title                       : Commentary with writer Simon Beaufoy & producer Christian Colson, 2.0 224 kbps
Language                    : English
Default                     : No
Forced                      : No

Text
ID                          : 8
Format                      : UTF-8
Codec ID                    : S_TEXT/UTF8
Codec ID/Info               : UTF-8 Plain Text
Duration                    : 1h 59mn
Bit rate                    : 42 bps
Count of elements           : 1385
Stream size                 : 37.1 KiB (0%)
Language                    : English
Default                     : No
Forced                      : No


Джерела та подяки: &
українські доріжки:
1) patriot2305 - зведення; Sando7, slavik_v_z, POMEO - запис з ТБ;
patriot2305 написано:
Залатав записом з ТЕТ-а місця де були дропи в записі з 1+1

2) patriot2305 - зведення; ratbol - запис з ТБ;
3) ua2004
українізовані постери - ТРЕМ, d1mma, DrediS


ЗАЛИШАЙТЕСЬ ЯКОМОГА ДОВШЕ НА РОЗДАЧІ!

СКАЧАВ САМ - ДАЙ СКАЧАТИ ІНШИМ


Авторський реліз (завантажувати можна без реєстрації)
 Трекер:    Зареєстрований   

Завантажити / скачати фільм українською



відео для новачків



 Зареєстрований:   2016-05-04 13:47
 Розмір:   6.41 GB 
 Оцінка фільму:   5.9/10 (Голосів: 24)
   
dr0 
Новенький


З нами з: 13.04.16
Востаннє: 06.12.16
Повідомлень: 4

2016-06-02 03:31  
Переклад і озвучка в доріжках ТЕТ і 1+1 співпадають, просто записи з різних каналів, я правильно зрозумів?
Anonymous 







2016-06-02 07:17  
так
DoctorLife 
Новенький


З нами з: 19.04.10
Востаннє: 06.12.16
Повідомлень: 17

2016-06-04 23:15  
Цей фільм варто подивитися.
Ваш часовий пояс: GMT + 2 Години

Нова тема   Відповісти