Завантажити та скачати торренти українською


Khors (Хорс) - Дискографiя (8 альбомiв) (2005-2015) [FLAC] | Pagan Black Metal

Нові коментарі

Нова тема   Відповісти
Останній раз роздавалося kolpavel (2016-12-07)
Автор Повідомлення
kolpavel 
VIP


З нами з: 04.05.14
Востаннє: 07.12.16
Повідомлень: 1059

2016-05-03 14:45  
Khors (Хорс) - Дискографiя (8 альбомiв) (2005-2015) [FLAC] | Pagan Black Metal

Khors (Хорс) - Дискографiя (8 альбомiв) (2005-2015) [FLAC] | Pagan Black Metal


Стиль: Pagan Black Metal
Країна, місто: Україна, Харків
Сайти: Офіційний сайт
Видавець: Oriana Music, Paragon Records, Eclectic Productions, Candlelight Records
Виконавці:
Jurgis — вокал, гiтара
Helg — вокал, гiтара
Khorus — бас-гiтара
Khaoth — ударнi

Eх -
Warth — гiтара
Nort — гiтара

Альбоми:
2005 - The Flame Of Eternity`s Decline

Khors (Хорс) - Дискографiя (8 альбомiв) (2005-2015) [FLAC] | Pagan Black Metal

Видавець: Oriana Music

Треклист:
01. Wounds Of The Past (4:40)
02. Eyes Of Eternal Lonelyness (4:30)
03. Throne Of Antiquity (5:10)
04. Trees are remembers (4:50)
05. Breath (2:08)
06. Moan Of The Grief (5:30)
07. Spirit Of Fury (4:09)
08. Flame Of Eternity (6:44)

Тривалість: 00:37:39
Мова: англійська (1-4, 6-8), інструментальні (5)
Бітрейт: 852 кб/с
EAC
Отчёт EAC об извлечении, выполненном 23. апреля 2009, 21:10

Khors / The Flame of Eternity's Decline

Дисковод: HL-DT-STDVDRAM GSA-H10N Adapter: 0 ID: 0

Режим чтения : Достоверность
Использование точного потока : Да
Отключение кэша аудио : Да
Использование указателей C2 : Нет

Коррекция смещения при чтении : 667
Способность читать области Lead-in и Lead-out : Нет
Заполнение пропущенных сэмплов тишиной : Да
Удаление блоков с тишиной в начале и конце : Нет
При вычислениях CRC использовались нулевые сэмплы : Да
Интерфейс : Встроенный Win32-интерфейс для Win NT/2000

Выходной формат : Внутренние WAV-операции
Формат сэмплов : 44.100 Гц; 16 бит; стерео

TOC извлечённого CD

Трек | Старт | Длительность | Начальный сектор | Конечный сектор
---------------------------------------------------------------------
1 | 0:00.00 | 4:39.22 | 0 | 20946
2 | 4:39.22 | 4:29.47 | 20947 | 41168
3 | 9:08.69 | 5:09.09 | 41169 | 64352
4 | 14:18.03 | 4:49.61 | 64353 | 86088
5 | 19:07.64 | 2:07.54 | 86089 | 95667
6 | 21:15.43 | 5:29.73 | 95668 | 120415
7 | 26:45.41 | 4:08.55 | 120416 | 139070
8 | 30:54.21 | 6:43.52 | 139071 | 169347

Характеристики диапазона извлечения и сообщения об ошибках

Выбранный диапазон

Имя файла D:\01-TEMP-10\MP3\Khors - The Flame of Eternity's Decline\Khors - The Flame of Eternity's Decline.wav

Пиковый уровень 97.7 %
Качество диапазона 100.0 %
CRC копии DBB6F289
Копирование... OK

Ошибок не произошло

AccurateRip: сводка

Трек 1 точное извлечение (доверие 1) [C0842DE9]
Трек 2 точное извлечение (доверие 1) [F5141BD8]
Трек 3 точное извлечение (доверие 1) [E36F7F5B]
Трек 4 точное извлечение (доверие 1) [DBEAFA5E]
Трек 5 точное извлечение (доверие 1) [4835EB62]
Трек 6 точное извлечение (доверие 1) [6B54D77E]
Трек 7 точное извлечение (доверие 1) [C6B4E62A]
Трек 8 точное извлечение (доверие 1) [334E91D8]

Все треки извлечены точно

Конец отчёта
2006 - Cold

Khors (Хорс) - Дискографiя (8 альбомiв) (2005-2015) [FLAC] | Pagan Black Metal

Видавець: Oriana Music

Треклист:
01. Cold (5:21)
02. Ashes (4:25)
03. Garnet (4:39)
04. Misery (6:47)
05. Concious Burning (5:33)
06. Whispers (2:25)
07. In the depths of black hills (5:27)
08. The Abyss (3:22)

Тривалість:00:38:00
Мова: англійська (1-5, 7,8); інструментальна (6)
Бітрейт: 998 кб/с
EAC
EAC extraction logfile from 23. April 2009, 20:24

Khors / Cold

Used drive : HL-DT-STDVDRAM GSA-H10N Adapter: 0 ID: 0

Read mode : Secure
Utilize accurate stream : Yes
Defeat audio cache : Yes
Make use of C2 pointers : No

Read offset correction : 667
Overread into Lead-In and Lead-Out : No
Fill up missing offset samples with silence : Yes
Delete leading and trailing silent blocks : No
Null samples used in CRC calculations : Yes
Used interface : Native Win32 interface for Win NT & 2000

Used output format : Internal WAV Routines
Sample format : 44.100 Hz; 16 Bit; Stereo

TOC of the extracted CD

Track | Start | Length | Start sector | End sector
---------------------------------------------------------
1 | 0:02.00 | 5:20.52 | 150 | 24201
2 | 5:22.52 | 4:24.65 | 24202 | 44066
3 | 9:47.42 | 4:39.14 | 44067 | 65005
4 | 14:26.56 | 6:47.22 | 65006 | 95552
5 | 21:14.03 | 5:33.22 | 95553 | 120549
6 | 26:47.25 | 2:25.37 | 120550 | 131461
7 | 29:12.62 | 5:27.00 | 131462 | 155986
8 | 34:39.62 | 3:21.61 | 155987 | 171122

Range status and errors

Selected range

Filename D:\01-TEMP-10\MP3\Khors - Cold.wav

Peak level 97.1 %
Range quality 99.9 %
Copy CRC 44A9945A
Copy OK

No errors occurred

AccurateRip summary

Track 1 accurately ripped (confidence 1) [4AF749CD]
Track 2 accurately ripped (confidence 1) [BD2604A3]
Track 3 accurately ripped (confidence 1) [9C34EC43]
Track 4 accurately ripped (confidence 1) [034422E8]
Track 5 accurately ripped (confidence 1) [E9A8D025]
Track 6 accurately ripped (confidence 1) [C554E1B2]
Track 7 accurately ripped (confidence 1) [301F0498]
Track 8 accurately ripped (confidence 1) [3D2D8A33]

All tracks accurately ripped

End of status report
2008 - Mysticism

Khors (Хорс) - Дискографiя (8 альбомiв) (2005-2015) [FLAC] | Pagan Black Metal

Видавець: Paragon Records

Треклист:
01. Through The Rays Of Fading Moon (2:55)
02. Raven's Dance (7:21)
03. Milk Of Heavens (4:08)
04. Winterfall (6:29)
05. In The Cold Embrace Of Mist (5:28)
06. Pagan Scars (3:37)
07. Mysticism (4:37)
08. Red Mirrors (4:12)

Тривалість: 00:38:46
Мова: англійська (2-5, 7, 8), інструментальні (1,6)
Бітрейт: 994 кб/с
EAC
Отчёт EAC об извлечении, выполненном 23. апреля 2009, 21:21

Khors / Mysticism

Дисковод: HL-DT-STDVDRAM GSA-H10N Adapter: 0 ID: 0

Режим чтения : Достоверность
Использование точного потока : Да
Отключение кэша аудио : Да
Использование указателей C2 : Нет

Коррекция смещения при чтении : 667
Способность читать области Lead-in и Lead-out : Нет
Заполнение пропущенных сэмплов тишиной : Да
Удаление блоков с тишиной в начале и конце : Нет
При вычислениях CRC использовались нулевые сэмплы : Да
Интерфейс : Встроенный Win32-интерфейс для Win NT/2000

Выходной формат : Внутренние WAV-операции
Формат сэмплов : 44.100 Гц; 16 бит; стерео

TOC извлечённого CD

Трек | Старт | Длительность | Начальный сектор | Конечный сектор
---------------------------------------------------------------------
1 | 0:00.00 | 2:54.54 | 0 | 13103
2 | 2:54.54 | 7:20.53 | 13104 | 46156
3 | 10:15.32 | 4:07.59 | 46157 | 64740
4 | 14:23.16 | 6:28.66 | 64741 | 93906
5 | 20:52.07 | 5:27.46 | 93907 | 118477
6 | 26:19.53 | 3:37.19 | 118478 | 134771
7 | 29:56.72 | 4:36.42 | 134772 | 155513
8 | 34:33.39 | 4:11.66 | 155514 | 174404
9 | 41:17.30 | 28:19.38 | 185805 | 313267

Характеристики диапазона извлечения и сообщения об ошибках

Выбранный диапазон

Имя файла D:\01-TEMP-10\MP3\Khors - Mysticism.wav

Пиковый уровень 100.0 %
Качество диапазона 100.0 %
CRC копии 85E3660C
Копирование... OK

Ошибок не произошло

AccurateRip: сводка

Трек 1 точное извлечение (доверие 2) [41C73146]
Трек 2 точное извлечение (доверие 2) [389A42AB]
Трек 3 точное извлечение (доверие 2) [B2C6309C]
Трек 4 точное извлечение (доверие 2) [2A86BDB0]
Трек 5 точное извлечение (доверие 2) [EF998377]
Трек 6 точное извлечение (доверие 2) [FC20B62C]
Трек 7 точное извлечение (доверие 2) [D76AA652]
Трек 8 точное извлечение (доверие 2) [EF1399BF]

Все треки извлечены точно

Конец отчёта
2010 - Return to Abandoned

Khors (Хорс) - Дискографiя (8 альбомiв) (2005-2015) [FLAC] | Pagan Black Metal

Видавець: Paragon Records

Треклист:
01. The Arrival (intro) (0:46)
02. Lost Threads (3:52)
03. Asgard's Shining (6:18)
04. Song of the Void (5:45)
05. The Fog (…and Grief Still Moans) (5:57)
06. Mysteries Cosmos (4:28)
07. The Seas Burn of Omnipotence (9:53)
08. Sacrament of Buyan (5:31)

Тривалість:00:42:30
Мова: англійська
Бітрейт: 814 кб/с
EAC
Exact Audio Copy V0.99 prebeta 4 from 23. January 2008

Отчёт EAC об извлечении, выполненном 17. декабря 2010, 7:42

Khors / Return To Abandoned

Дисковод: HL-DT-STDVDRAM GSA-H10N Adapter: 0 ID: 0

Режим чтения : Достоверность
Использование точного потока : Да
Отключение кэша аудио : Да
Использование указателей C2 : Нет

Коррекция смещения при чтении : 667
Способность читать области Lead-in и Lead-out : Нет
Заполнение пропущенных сэмплов тишиной : Да
Удаление блоков с тишиной в начале и конце : Нет
При вычислениях CRC использовались нулевые сэмплы : Да
Интерфейс : Встроенный Win32-интерфейс для Win NT/2000

Выходной формат : Внутренние WAV-операции
Формат сэмплов : 44.100 Гц; 16 бит; стерео

TOC извлечённого CD

Трек | Старт | Длительность | Начальный сектор | Конечный сектор
---------------------------------------------------------------------
1 | 0:00.00 | 0:46.21 | 0 | 3470
2 | 0:46.21 | 3:52.11 | 3471 | 20881
3 | 4:38.32 | 6:18.20 | 20882 | 49251
4 | 10:56.52 | 5:44.54 | 49252 | 75105
5 | 16:41.31 | 5:56.68 | 75106 | 101873
6 | 22:38.24 | 4:27.63 | 101874 | 121961
7 | 27:06.12 | 9:52.60 | 121962 | 166421
8 | 36:58.72 | 5:30.57 | 166422 | 191228

Характеристики диапазона извлечения и сообщения об ошибках

Выбранный диапазон

Имя файла D:\01-TEMP-10\MP3\Khors 2010 Return To Abandoned.wav

Пиковый уровень 99.1 %
Качество диапазона 100.0 %
CRC копии 8FCFFEA9
Копирование... OK

Ошибок не произошло

AccurateRip: сводка

Трек 1 нет в базе данных
Трек 2 нет в базе данных
Трек 3 нет в базе данных
Трек 4 нет в базе данных
Трек 5 нет в базе данных
Трек 6 нет в базе данных
Трек 7 нет в базе данных
Трек 8 нет в базе данных

Ни одного трека нет в базе AccurateRip

Конец отчёта
2010 - The Flames Of Eternity’s Decline / Cold

Khors (Хорс) - Дискографiя (8 альбомiв) (2005-2015) [FLAC] | Pagan Black Metal

Видавець: Paragon Records

Треклист:

CD 1 — The Flame of Eternity's Decline

01. Wounds Of The Past - 04:41
02. Eyes Of Eternal Loneliness - 04:32
03. Throne Of Antiquity - 05:09
04. Trees are remembers - 04:52
05. Breath - 02:08
06. Moan Of The Grief
07. Spirit Of Fury
08. Flame Of Eternity
Bonus:
09. Wounds Of The Past (wood mix)
10. Spirit Of Fury (moon mix)
11. Moan Of The Grief (live)
12. Trees are remembers (demo)
13. Eyes Of Eternal Loneliness (demo)
14. Throne Of Antiquity (demo)
15. Flame Of Eternity (demo)

CD 2 — Cold

01. Cold
02. Ashes
03. Garnet
04. Misery
05. Concious Burning
06. Whispers
07. In the depths of black hills
08. The Abyss
Bonus:
09. Cold (art-rock version)
10. Ashes (live)
11. Garnet (Video)

Тривалість: 02:12:33
Мова: CD1 - англійська (1-4, 6-8), інструментальні (5), CD2 - англійська (1-5, 7,8); інструментальна (6)
Бітрейт: 852 кб/с
EAC
Disc 1
Exact Audio Copy V0.99 prebeta 4 from 23. January 2008

Отчёт EAC об извлечении, выполненном 17. ноября 2010, 7:28

Khors / THe Flames Of Eternity’s Decline-Cold [Best Of Compilation]

Дисковод: HL-DT-STDVDRAM GSA-H10N Adapter: 0 ID: 0

Режим чтения : Достоверность
Использование точного потока : Да
Отключение кэша аудио : Да
Использование указателей C2 : Нет

Коррекция смещения при чтении : 667
Способность читать области Lead-in и Lead-out : Нет
Заполнение пропущенных сэмплов тишиной : Да
Удаление блоков с тишиной в начале и конце : Нет
При вычислениях CRC использовались нулевые сэмплы : Да
Интерфейс : Встроенный Win32-интерфейс для Win NT/2000

Выходной формат : Внутренние WAV-операции
Формат сэмплов : 44.100 Гц; 16 бит; стерео

TOC извлечённого CD

Трек | Старт | Длительность | Начальный сектор | Конечный сектор
---------------------------------------------------------------------
1 | 0:00.00 | 4:41.22 | 0 | 21096
2 | 4:41.22 | 4:31.47 | 21097 | 41468
3 | 9:12.69 | 5:09.09 | 41469 | 64652
4 | 14:22.03 | 4:51.61 | 64653 | 86538
5 | 19:13.64 | 2:07.54 | 86539 | 96117
6 | 21:21.43 | 5:29.73 | 96118 | 120865
7 | 26:51.41 | 4:08.55 | 120866 | 139520
8 | 31:00.21 | 6:43.51 | 139521 | 169796
9 | 37:43.72 | 4:25.01 | 169797 | 189672
10 | 42:08.73 | 4:15.37 | 189673 | 208834
11 | 46:24.35 | 5:09.43 | 208835 | 232052
12 | 51:34.03 | 4:51.53 | 232053 | 253930
13 | 56:25.56 | 4:30.63 | 253931 | 274243
14 | 60:56.44 | 4:59.31 | 274244 | 296699
15 | 65:56.00 | 6:47.20 | 296700 | 327244

Характеристики диапазона извлечения и сообщения об ошибках

Выбранный диапазон

Имя файла D:\01-TEMP-10\MP3\Khors 2010 THe Flames Of Eternity’s Decline-Cold [Best Of Compilation].wav

Пиковый уровень 100.0 %
Качество диапазона 100.0 %
CRC копии A1485D41
Копирование... OK

Ошибок не произошло

AccurateRip: сводка

Трек 1 нет в базе данных
Трек 2 нет в базе данных
Трек 3 нет в базе данных
Трек 4 нет в базе данных
Трек 5 нет в базе данных
Трек 6 нет в базе данных
Трек 7 нет в базе данных
Трек 8 нет в базе данных
Трек 9 нет в базе данных
Трек 10 нет в базе данных
Трек 11 нет в базе данных
Трек 12 нет в базе данных
Трек 13 нет в базе данных
Трек 14 нет в базе данных
Трек 15 нет в базе данных

Ни одного трека нет в базе AccurateRip

Конец отчёта

Disc 2
Exact Audio Copy V0.99 prebeta 4 from 23. January 2008

Отчёт EAC об извлечении, выполненном 17. ноября 2010, 7:46

Khors / Khors 2010 THe Flames Of Eternity’s Decline-Cold [Best Of Compilation]

Дисковод: HL-DT-STDVDRAM GSA-H10N Adapter: 0 ID: 0

Режим чтения : Достоверность
Использование точного потока : Да
Отключение кэша аудио : Да
Использование указателей C2 : Нет

Коррекция смещения при чтении : 667
Способность читать области Lead-in и Lead-out : Нет
Заполнение пропущенных сэмплов тишиной : Да
Удаление блоков с тишиной в начале и конце : Нет
При вычислениях CRC использовались нулевые сэмплы : Да
Интерфейс : Встроенный Win32-интерфейс для Win NT/2000

Выходной формат : Внутренние WAV-операции
Формат сэмплов : 44.100 Гц; 16 бит; стерео

TOC извлечённого CD

Трек | Старт | Длительность | Начальный сектор | Конечный сектор
---------------------------------------------------------------------
1 | 0:00.00 | 5:22.52 | 0 | 24201
2 | 5:22.52 | 4:25.45 | 24202 | 44121
3 | 9:48.22 | 4:37.64 | 44122 | 64960
4 | 14:26.11 | 6:44.04 | 64961 | 95264
5 | 21:10.15 | 5:31.70 | 95265 | 120159
6 | 26:42.10 | 2:27.26 | 120160 | 131210
7 | 29:09.36 | 5:27.34 | 131211 | 155769
8 | 34:36.70 | 3:22.72 | 155770 | 170991
9 | 37:59.67 | 4:59.55 | 170992 | 193471
10 | 42:59.47 | 4:21.29 | 193472 | 213075
11 | 49:53.01 | 12:34.24 | 224476 | 281049

Характеристики диапазона извлечения и сообщения об ошибках

Выбранный диапазон

Имя файла D:\01-TEMP-10\MP3\Khors 2010 Khors 2010 THe Flames Of Eternity’s Decline-Cold [Best Of Compilation].wav

Пиковый уровень 100.0 %
Качество диапазона 100.0 %
CRC копии 28B60997
Копирование... OK

Ошибок не произошло

AccurateRip: сводка

Трек 1 нет в базе данных
Трек 2 нет в базе данных
Трек 3 нет в базе данных
Трек 4 нет в базе данных
Трек 5 нет в базе данных
Трек 6 нет в базе данных
Трек 7 нет в базе данных
Трек 8 нет в базе данных
Трек 9 нет в базе данных
Трек 10 нет в базе данных

Ни одного трека нет в базе AccurateRip

Конец отчёта
Вiдео звiт
Потік 0
Тип: Відео
Кодек: MPEG - 4 Video (DX50)
Дозвіл: (720x544)
Монітор із роздільною здатністю: 720x40
Частота кадрів: 29.970029 Декодований формат: Planar 4:2:0 YUV

Потік 1
Тип: Аудіо
Кодек: MPEG Audio layer 3 (mp3)
Канали: стерео
Частота дискредитації: 48000 Гц
Бітрейд: 256 кб/сек
Тривалість: 04:42
Скрiншот вiдео
Khors (Хорс) - Дискографiя (8 альбомiв) (2005-2015) [FLAC] | Pagan Black Metal
Khors (Хорс) - Дискографiя (8 альбомiв) (2005-2015) [FLAC] | Pagan Black Metal
Khors (Хорс) - Дискографiя (8 альбомiв) (2005-2015) [FLAC] | Pagan Black Metal
Khors (Хорс) - Дискографiя (8 альбомiв) (2005-2015) [FLAC] | Pagan Black Metal
Khors (Хорс) - Дискографiя (8 альбомiв) (2005-2015) [FLAC] | Pagan Black Metal
2012 - Wisdom of Centuries

Khors (Хорс) - Дискографiя (8 альбомiв) (2005-2015) [FLAC] | Pagan Black Metal

Видавець: Candlelight Records

Треклист:
01. Through the Clouds of the Past (1:55)
02. Black Forest's Flaming Eyes (9:13)
03. The Last Leaves (6:28)
04. Where the Grandeur of Mountains Embraces the Space (1:55)
05. Horizons Glassy (2:54)
06. Wisdom of Centuries (6:03)
07. The Only Time Will Take It Away (7:54)
08. Twilight (1:30)

Тривалість:00:37:54
Мова: українська (2,3,6,7), інструментальна (1,4,5,8)
Бітрейт: 972 кб/с
EAC
Exact Audio Copy V1.0 beta 3 from 29. August 2011

EAC extraction logfile from 22. December 2012, 21:22

Khors / Wisdom Of Centuries

Used drive : Optiarc DVD RW AD-7260S Adapter: 1 ID: 1

Read mode : Secure
Utilize accurate stream : Yes
Defeat audio cache : Yes
Make use of C2 pointers : No

Read offset correction : 48
Overread into Lead-In and Lead-Out : No
Fill up missing offset samples with silence : Yes
Delete leading and trailing silent blocks : No
Null samples used in CRC calculations : Yes
Used interface : Native Win32 interface for Win NT & 2000

Used output format : Internal WAV Routines
Sample format : 44.100 Hz; 16 Bit; Stereo

TOC of the extracted CD

Track | Start | Length | Start sector | End sector
---------------------------------------------------------
1 | 0:00.00 | 1:55.24 | 0 | 8648
2 | 1:55.24 | 9:13.12 | 8649 | 50135
3 | 11:08.36 | 6:28.16 | 50136 | 79251
4 | 17:36.52 | 1:55.25 | 79252 | 87901
5 | 19:32.02 | 2:54.30 | 87902 | 100981
6 | 22:26.32 | 6:03.11 | 100982 | 128217
7 | 28:29.43 | 7:54.10 | 128218 | 163777
8 | 36:23.53 | 1:30.04 | 163778 | 170531

Range status and errors

Selected range

Filename C:\Мои документы\Khors - 2012 - Wisdom Of Centuries.wav

Peak level 99.3 %
Extraction speed 3.6 X
Range quality 100.0 %
Test CRC 4016E9F1
Copy CRC 4016E9F1
Copy OK

No errors occurred

AccurateRip summary

Track 1 accurately ripped (confidence 1) [DFE56701] (AR v1)
Track 2 accurately ripped (confidence 1) [038C8716] (AR v1)
Track 3 accurately ripped (confidence 1) [AE2CED93] (AR v1)
Track 4 accurately ripped (confidence 1) [9BA57786] (AR v1)
Track 5 accurately ripped (confidence 1) [20C89536] (AR v1)
Track 6 accurately ripped (confidence 1) [CCE93437] (AR v1)
Track 7 accurately ripped (confidence 1) [7421D850] (AR v1)
Track 8 accurately ripped (confidence 1) [BDCCD849] (AR v1)

All tracks accurately ripped

End of status report

---- CUETools DB Plugin V2.1.4

[CTDB TOCID: oP81XVB0AWZSG30sAKGgy.nFXWU-] found
Submit result: oP81XVB0AWZSG30sAKGgy.nFXWU- has been confirmed
Track | CTDB Status
1 | (1/1) Accurately ripped
2 | (1/1) Accurately ripped
3 | (1/1) Accurately ripped
4 | (1/1) Accurately ripped
5 | (1/1) Accurately ripped
6 | (1/1) Accurately ripped
7 | (1/1) Accurately ripped
8 | (1/1) Accurately ripped

==== Log checksum BE7E0057988E99915A59953C5AD1D5F11235D7DCF398AA12BFE34FCF53B919F6 ====
2013 - Abandoned Leaves (Live)

Khors (Хорс) - Дискографiя (8 альбомiв) (2005-2015) [FLAC] | Pagan Black Metal

Видавець: Eclectic Productions

Треклист:
01. The Arrival (Intro) - 00:46
02. Lost Threads - 03:59
03. Asgard's Shining - 06:42
04. The Fog (...and Grief Still Moans) - 06:03
05. In the Depths of Black Hills - 05:32
06. Mysticism - 04:39
07. Thunder I Shall Bring (Astrofaes cover) - 07:44
08. Ashes - 04:34
09. Sacrament of Buyan - 05:44
10. Trees Are Remembers... - 04:56

Тривалість:00:50:39
Мова: українська
Бітрейт: 997 кб/с
EAC
Exact Audio Copy V1.0 beta 3 from 29. August 2011

EAC extraction logfile from 30. April 2016, 13:08

Khors / Abandoned Leaves

Used drive : Optiarc DVD RW AD-7260S Adapter: 1 ID: 1

Read mode : Secure
Utilize accurate stream : Yes
Defeat audio cache : Yes
Make use of C2 pointers : No

Read offset correction : 48
Overread into Lead-In and Lead-Out : No
Fill up missing offset samples with silence : Yes
Delete leading and trailing silent blocks : No
Null samples used in CRC calculations : Yes
Used interface : Native Win32 interface for Win NT & 2000

Used output format : Internal WAV Routines
Sample format : 44.100 Hz; 16 Bit; Stereo

TOC of the extracted CD

Track | Start | Length | Start sector | End sector
---------------------------------------------------------
1 | 0:00.00 | 0:45.59 | 0 | 3433
2 | 0:45.59 | 3:59.17 | 3434 | 21375
3 | 4:45.01 | 6:42.31 | 21376 | 51556
4 | 11:27.32 | 6:03.04 | 51557 | 78785
5 | 17:30.36 | 5:32.11 | 78786 | 103696
6 | 23:02.47 | 4:38.40 | 103697 | 124586
7 | 27:41.12 | 7:44.29 | 124587 | 159415
8 | 35:25.41 | 4:34.34 | 159416 | 179999
9 | 40:00.00 | 5:43.53 | 180000 | 205777
10 | 45:43.53 | 4:56.02 | 205778 | 227979

Range status and errors

Selected range

Filename C:\Мои документы\Khors - 2013 - Abandoned Leaves.wav

Peak level 96.6 %
Extraction speed 4.0 X
Range quality 100.0 %
Test CRC 8FEB5B1B
Copy CRC 8FEB5B1B
Copy OK

No errors occurred

AccurateRip summary

Track 1 accurately ripped (confidence 1) [F423D44C] (AR v2)
Track 2 accurately ripped (confidence 1) [55391163] (AR v2)
Track 3 accurately ripped (confidence 1) [E649358F] (AR v2)
Track 4 accurately ripped (confidence 1) [08E2EFDB] (AR v2)
Track 5 accurately ripped (confidence 1) [18B8D349] (AR v2)
Track 6 accurately ripped (confidence 1) [85F82496] (AR v2)
Track 7 accurately ripped (confidence 1) [086D98F6] (AR v2)
Track 8 accurately ripped (confidence 1) [49FDAB01] (AR v2)
Track 9 accurately ripped (confidence 1) [4EA5041C] (AR v2)
Track 10 accurately ripped (confidence 1) [456EE27E] (AR v2)

All tracks accurately ripped

End of status report

---- CUETools DB Plugin V2.1.4

[CTDB TOCID: 5GsgBJmBo_BopXgdr7plcqVTpS8-] found
Submit result: 5GsgBJmBo_BopXgdr7plcqVTpS8- has been confirmed
Track | CTDB Status
1 | (2/2) Accurately ripped
2 | (2/2) Accurately ripped
3 | (2/2) Accurately ripped
4 | (2/2) Accurately ripped
5 | (2/2) Accurately ripped
6 | (2/2) Accurately ripped
7 | (2/2) Accurately ripped
8 | (2/2) Accurately ripped
9 | (2/2) Accurately ripped
10 | (2/2) Accurately ripped

==== Log checksum 8B2DE5B220DD01725224C6A9E198EBB33389C52655DEDA52E21DCF495BB36B99 ====
2015 - Night Falls Onto The Fronts Of Ours

Khors (Хорс) - Дискографiя (8 альбомiв) (2005-2015) [FLAC] | Pagan Black Metal

Видавець: Candlelight Records

Треклист:
1. Нi клятв, нi слiз, нi колiн! - No Oaths, No Tears, No Knees! - 06:50
2. Долина мертвих птахiв - Dead Birds Valley - 06:05
3. Шляхом кривавих дорiг - Following the Ways of Blood - 04:44
4. І Ніч схиляється до наших лиць - Night Falls Onto the Fronts of Ours - 03:01
5. 1664 - 04:44
6. Востаннє - For the Last Time - 05:28
7. Струнке павутиння самотності - Slight Web Solitude - 05:15
8. Мiй козацький шлях - My Cossack Way - 07:47

Тривалість:00:43:41
Мова: українська
Бітрейт: 1025 кб/с
EAC
Exact Audio Copy V1.0 beta 6 from 9. April 2015

EAC extraction logfile from 22. May 2015, 18:15

Khors / Night Falls Onto The Fronts Of Ours

Used drive : ASUS DRW-1608P Adapter: 1 ID: 0

Read mode : Secure
Utilize accurate stream : Yes
Defeat audio cache : Yes
Make use of C2 pointers : No

Read offset correction : 48
Overread into Lead-In and Lead-Out : No
Fill up missing offset samples with silence : Yes
Delete leading and trailing silent blocks : No
Null samples used in CRC calculations : Yes
Used interface : Native Win32 interface for Win NT & 2000

Used output format : User Defined Encoder
Selected bitrate : 768 kBit/s
Quality : High
Add ID3 tag : No
Command line compressor : C:\Program Files (x86)\Exact Audio Copy\FLAC\FLAC.EXE
Additional command line options : -6 -V -T "ARTIST=%artist%" -T "TITLE=%title%" -T "ALBUM=%albumtitle%" -T "DATE=%year%" -T "TRACKNUMBER=%tracknr%" -T "GENRE=%genre%" -T "COMMENT=%comment%" -T "BAND=%albuminterpret%" -T "ALBUMARTIST=%albuminterpret%" -T "COMPOSER=%composer%" %haslyrics%--tag-from-file=LYRICS="%lyricsfile%"%haslyrics% -T "DISCNUMBER=%cdnumber%" -T "TOTALDISCS=%totalcds%" -T "TOTALTRACKS=%numtracks%" %hascover%--picture="%coverfile%"%hascover% %source% -o %dest%

TOC of the extracted CD

Track | Start | Length | Start sector | End sector
---------------------------------------------------------
1 | 0:00.00 | 6:49.45 | 0 | 30719
2 | 6:49.45 | 6:05.37 | 30720 | 58131
3 | 12:55.07 | 4:44.31 | 58132 | 79462
4 | 17:39.38 | 3:01.01 | 79463 | 93038
5 | 20:40.39 | 4:43.67 | 93039 | 114330
6 | 25:24.31 | 5:28.26 | 114331 | 138956
7 | 30:52.57 | 5:15.24 | 138957 | 162605
8 | 36:08.06 | 7:46.65 | 162606 | 197620

Range status and errors

Selected range

Filename D:\Khors - Night Falls Onto The Fronts Of Ours.wav

Peak level 98.2 %
Extraction speed 6.9 X
Range quality 100.0 %
Test CRC 35D5EE63
Copy CRC 35D5EE63
Copy OK

No errors occurred

AccurateRip summary

Track 1 not present in database
Track 2 not present in database
Track 3 not present in database
Track 4 not present in database
Track 5 not present in database
Track 6 not present in database
Track 7 not present in database
Track 8 not present in database

None of the tracks are present in the AccurateRip database

End of status report

---- CUETools DB Plugin V2.1.6

[CTDB TOCID: tPBZzDljibmVvp10L4E.m9k0ejw-] found
Submit result: tPBZzDljibmVvp10L4E.m9k0ejw- has been confirmed
Track | CTDB Status
1 | (1/1) Accurately ripped
2 | (1/1) Accurately ripped
3 | (1/1) Accurately ripped
4 | (1/1) Accurately ripped
5 | (1/1) Accurately ripped
6 | (1/1) Accurately ripped
7 | (1/1) Accurately ripped
8 | (1/1) Accurately ripped

==== Log checksum 51B2A2BF2F13191865A5F7D47F7B9F29B737BB4F504952059C90900BD02EE4C9 ====
Тривалість: 06:18:30
Мова: українська, англiйська
Аудіо-кодек: FLAC
Бітрейт: 641-1025 кб/с
Джерело: трекер

Якщо Ви справді бажаєте підтримати українське - після прослуховування, якщо музика вам сподобалась, придбайте ліцензійний диск. Підтримаймо вітчизняних виконавців!


Золотий реліз (завантажене не впливає на рейтинг)
 Трекер:    Зареєстрований   

Завантажити / скачати українську музику



відео для новачків



 Зареєстрований:   2016-08-01 17:30
 Розмір:   3.26 GB 
 Оцінка музики:   9.3/10 (Голосів: 3)
   
kolpavel 
VIP


З нами з: 04.05.14
Востаннє: 07.12.16
Повідомлень: 1059

2016-05-03 14:55  
Був дуже здивований що не виявив дискографії Khors в якостi. Ювілейні альбоми п'ятнадцятого року i т.д. буду додавати по їх наявностi. Нема одного EP 2013 року, а так наче все.

Pinguin, http://toloka.to/t73392#803512 - Khors - Дискографiя (8 альбомiв)(2005-2015) [MP3] | Pagan Black Metal

Pinguin 
Поважний учасник


З нами з: 08.04.12
Востаннє: 07.12.16
Повідомлень: 190

2016-05-03 18:25  
kolpavel
чи плануєте таку збірку в МР3?

Volovik 
VIP


З нами з: 21.02.10
Востаннє: 08.12.16
Повідомлень: 341

2016-06-30 22:59  
kolpavel написано:
18 2006 - Cold/Khors - Cold.flac 11 MB

З цим щось не так. Неможливо запхнути 8 треків альбому в 11 Мб

kolpavel 
VIP


З нами з: 04.05.14
Востаннє: 07.12.16
Повідомлень: 1059

2016-08-01 17:33  
Volovik, дякую, виправив.

Вибачаюсь, хто скачав, перекачайте будьласка.

Ваш часовий пояс: GMT + 2 Години

Нова тема   Відповісти